Вперёд / Onward (Дэн Скэнлон / Dan Scanlon) [2020, США, мультфильм, фэнтези, комедия, приключения, семейный, WEB-DLRip] [Локализованный видеоряд] Dub (iTunes)

Ответить на тему
Статистика раздачи
Размер:  1.46 GB   |    Зарегистрирован:  11 дней   |    Скачан:  0 раз
Сидов:  1   Личеров:  1  
 
 
Автор Сообщение

erzsebet ®

Стаж: 18 лет

Сообщений: 471164

Откуда: Венгрия

Создавать темы 30-Июн-2020 10:49  |  Сменить автора

[Цитировать] 

Вперёд / Onward
Страна: США
Жанр: мультфильм, фэнтези, комедия, приключения, семейный
Год выпуска: 2020
Продолжительность: 01:43:09-Перевод: Профессиональный (дублированный) | iTunes
Субтитры: нет
Оригинальная аудиодорожка: нет-Режиссер: Дэн Скэнлон / Dan Scanlon-В ролях: Том Холланд, Крис Пратт, Джулия Луис-Дрейфус, Октавия Спенсер, Мэл Родригез, Кайл Борнхаймер, Лина Уэйте, Али Вонг, Грэй Гриффин, Трейси Ульман-Описание: Братья-эльфы Иэн и Барли Лайтфуты живут в волшебном мире, населенном троллями, гоблинами, гномами, кентаврами и единорогами. Когда-то их мир переполняла магия, но те времена прошли, и теперь сказочные существа летают на самолетах, пользуются автомобилями, и ведут в целом прозаичную жизнь. Однако неожиданная находка приводит к тому, что братья решают отправиться в захватывающее путешествие на поиски настоящего волшебства из древних преданий.- -Качество видео: WEB-DLRip
Формат видео: AVI
Видео: 720x304 (2.37:1), 23.976 fps, XviD build 73 ~1642 kbps avg, 0.31 bit/pixel
Аудио: 48 kHz, AC3 Dolby Digital, 3/2 (L,C,R,l,r) + LFE ch, ~384 kbps-[box]Сэмпл[/box]-

MediaInfo

Код:
Формат : AVI
Формат/Информация : Audio Video Interleave
Размер файла : 1,46 Гбайт
Продолжительность : 1 ч. 43 м.
Общий поток : 2 033 Кбит/сек
Название фильма : Вперёд_2020_WEB-DLRip
Программа кодирования : VirtualDubMod 1.5.10.3 | www.virtualdub-fr.org || (build 2550/release)
Авторское право : порошков
Видео
Идентификатор : 0
Формат : MPEG-4 Visual
Профиль формата : Advanced [email protected]
Настройки формата : BVOP1 / Custom Matrix
Параметр BVOP формата : 1
Параметр QPel формата : Нет
Параметр GMC формата : Без точки перехода
Параметр матрицы формата : Выборочная
Идентификатор кодека : XVID
Идентификатор кодека/Подсказка : XviD
Продолжительность : 1 ч. 43 м.
Битрейт : 1 642 Кбит/сек
Ширина : 720 пикселей
Высота : 304 пикселя
Соотношение сторон : 2,35:1
Частота кадров : 23,976 (24000/1001) кадра/сек
Цветовое пространство : YUV
Субдискретизация насыщенности : 4:2:0
Битовая глубина : 8 бит
Тип развёртки : Прогрессивная
Метод сжатия : С потерями
Бит/(Пиксели*Кадры) : 0.313
Размер потока : 1,18 Гбайт (81%)
Библиотека кодирования : XviD 73
Аудио
Идентификатор : 1
Формат : AC-3
Формат/Информация : Audio Coding 3
Коммерческое название : Dolby Digital
Идентификатор кодека : 2000
Продолжительность : 1 ч. 42 м.
Вид битрейта : Постоянный
Битрейт : 384 Кбит/сек
Каналы : 6 каналов
Channel layout : L R C LFE Ls Rs
Частота : 48,0 КГц
Частота кадров : 31,250 кадров/сек (1536 SPF)
Метод сжатия : С потерями
Размер потока : 281 Мбайт (19%)
Выравнивание : Разделение по промежуткам
Продолжительность промежутка : 42 мс. (1,01 видеокадр)
Время предзагрузки промежутка : 500 мс.
Service kind : Complete Main

Скриншоты


[erzsebet.org].t2924574.torrent
Торрент: Зарегистрирован [ 2020-06-30 10:49 ]

Скачать .torrent

Скачать

15 KB

Статус: проверено
Скачан: 0 раз
Размер: 1.46 GB
Поблагодарили: 0  Спасибо
terms.php
Связанные раздачи
Добавлен Темы Размер S / L Ссылка
20-Май-20 08:23 Вперёд / Onward (Дэн Скэнлон / Dan Scanlon) [2020, США, Мультфильм, фэнтези, комедия, приключения, семейный, BDRemux 1080p] Dub + Original (Eng) + Sub (rus, eng)Отв. 0 22.47 GB | Скачать .torrent
24-Апр-20 03:51 Вперёд / Onward (Дэн Скэнлон / Dan Scanlon) [2020, США, мультфильм, приключения, комедия, фэнтези, WEB-DL 1080p] MVO (HDRezka Studio) + Original + Sub (Eng)Отв. 0 6.55 GB | Скачать .torrent
24-Апр-20 03:51 Вперёд / Onward (Дэн Скэнлон / Dan Scanlon) [2020, США, Мультфильм, фэнтези, комедия, приключения, семейный, WEB-DL 1080p] [Локализованный видеоряд] Dub + Original (Eng) + Sub (rus, eng)Отв. 0 3.83 GB | Скачать .torrent
[Профиль]  [ЛС] 
Показать сообщения:    
Ответить на тему

Текущее время: 12-Июл 02:20

Часовой пояс: UTC + 3



Вы не можете начинать темы
Вы не можете отвечать на сообщения
Вы не можете редактировать свои сообщения
Вы не можете удалять свои сообщения
Вы не можете голосовать в опросах
Вы не можете прикреплять файлы к сообщениям
Вы можете скачивать файлы