Холодное сердце 2 / Frozen II (Крис Бак / Chris Buck, Дженнифер Ли / Jennifer Lee) [2019, США, мультфильм, мюзикл, фэнтези, комедия, приключения, семейный, BDRip-AVC] Dub (Rus) + Sub (Rus, Eng) + Original (Eng)

Ответить на тему
Статистика раздачи
Размер:  1.46 GB   |    Зарегистрирован:  11 дней   |    Скачан:  0 раз
Сидов:  1   Личеров:  1  
 
 
Автор Сообщение

erzsebet ®

Стаж: 18 лет

Сообщений: 471259

Откуда: Венгрия

Создавать темы 30-Июн-2020 10:49  |  Сменить автора

[Цитировать] 

Холодное сердце 2 / Frozen II
Страна: США
Жанр: мультфильм, мюзикл, фэнтези, комедия, приключения, семейный
Год выпуска: 2019
Продолжительность: 01:43:13
Перевод: Профессиональный (дублированный) iTunes
Оригинальная аудиодорожка: английский
Субтитры: Русские (Полные, SDH), Английские (Full, SDH)
Навигация по главам: есть--Режиссер: Крис Бак / Chris Buck, Дженнифер Ли / Jennifer Lee--В ролях: Идина Мензел, Кристен Белл, Джонатан Грофф, Джош Гэд, Стерлинг К. Браун, Эван Рэйчел Вуд, Альфред Молина, Марта Плимптон, Джейсон Риттер, Рэйчел Мэттьюз...--Описание: Анна, Эльза, Кристоф, его верный олень Свен и никогда не унывающий снеговик Олаф должны будут покинуть уютное королевство Эренделл и отправиться ещё дальше на север, в путешествие, которое приведет их к истокам древних легенд и поможет раскрыть тайны, касающиеся прошлого их родной страны.--Доп. информация: | IMDB | КиноПоиск | Сэмпл | --Качество видео: BDRip-AVC Frozen II (2019) Blu-ray Remux -BLUEBIRD
Формат видео: MKV
Видео: AVC, 960x402 (2.40:1), 1250 kbps, 23.976 fps, 0.135 bit/pixel
Аудио 1: AC3 Dolby Digital, 3/2 (L,C,R,l,r) + LFE ch, 48.0 KHz, 384 Kbps | Дубляж |
Аудио 2: AC3 Dolby Digital, 3/2 (L,C,R,l,r) + LFE ch, 48.0 KHz, 384 Kbps | Original |
Формат субтитров: softsub (SRT)

Скриншоты

MediaInfo/x264

x264

raw [info]: 960x402p 1:1 @ 24000/1001 fps (cfr)
x264 [info]: using SAR=1/1
x264 [info]: using cpu capabilities: MMX2 SSE2Fast SSSE3 SSE4.2 AVX
x264 [info]: profile High, level 4.1, 4:2:0, 8-bit
x264 [info]: frame I:1059 Avg QP:14.70 size: 54866
x264 [info]: frame P:34954 Avg QP:18.86 size: 13488
x264 [info]: frame B:112495 Avg QP:21.41 size: 3894
x264 [info]: consecutive B-frames: 2.7% 2.0% 10.5% 33.5% 21.4% 20.1% 1.6% 2.7% 0.3% 1.2% 3.5% 0.6% 0.1% 0.0% 0.1% 0.1%
x264 [info]: mb I I16..4: 8.0% 69.0% 23.0%
x264 [info]: mb P I16..4: 1.7% 8.9% 1.8% P16..4: 38.5% 18.0% 15.8% 0.8% 0.3% skip:14.2%
x264 [info]: mb B I16..4: 0.2% 1.0% 0.3% B16..8: 31.5% 7.9% 2.4% direct: 3.6% skip:53.2% L0:40.2% L1:46.3% BI:13.5%
x264 [info]: 8x8 transform intra:70.8% inter:54.1%
x264 [info]: direct mvs spatial:95.9% temporal:4.1%
x264 [info]: coded y,uvDC,uvAC intra: 74.2% 76.6% 51.5% inter: 14.1% 12.1% 6.0%
x264 [info]: i16 v,h,dc,p: 27% 15% 7% 51%
x264 [info]: i8 v,h,dc,ddl,ddr,vr,hd,vl,hu: 15% 10% 8% 8% 11% 11% 13% 10% 14%
x264 [info]: i4 v,h,dc,ddl,ddr,vr,hd,vl,hu: 24% 7% 5% 8% 12% 11% 12% 9% 12%
x264 [info]: i8c dc,h,v,p: 36% 27% 20% 17%
x264 [info]: Weighted P-Frames: Y:6.0% UV:4.2%
x264 [info]: ref P L0: 55.7% 10.3% 12.1% 5.8% 4.2% 3.3% 2.7% 1.6% 1.3% 1.1% 0.9% 0.8% 0.1% 0.0%
x264 [info]: ref B L0: 79.0% 10.4% 4.3% 1.9% 1.4% 1.0% 0.8% 0.5% 0.4% 0.3% 0.1%
x264 [info]: ref B L1: 95.7% 4.3%
x264 [info]: kb/s:1249.81
General
Unique ID : 193989708174881983046301415022117581527 (0x91F10F0CB5D9F582A8C1F22748A0F2D7)
Complete name : Frozen II. (2019).mkv
Format : Matroska
Format version : Version 4
File size : 1.46 GiB
Duration : 1 h 43 min
Overall bit rate : 2 021 kb/s
Movie name : Холодное сердце 2 / Frozen II (2019)
Encoded date : UTC 2020-03-11 08:54:16
Writing application : mkvmerge v8.1.0 ('Psychedelic Postcard') 64bit
Writing library : libebml v1.3.1 + libmatroska v1.4.2
Cover : Yes
Attachments : cover.jpg
Video
ID : 1
Format : AVC
Format/Info : Advanced Video Codec
Format profile : [email protected]
Format settings : CABAC / 12 Ref Frames
Format settings, CABAC : Yes
Format settings, Reference : 12 frames
Codec ID : V_MPEG4/ISO/AVC
Duration : 1 h 43 min
Bit rate : 1 250 kb/s
Width : 960 pixels
Height : 402 pixels
Display aspect ratio : 2.40:1
Frame rate mode : Constant
Frame rate : 23.976 (24000/1001) FPS
Color space : YUV
Chroma subsampling : 4:2:0
Bit depth : 8 bits
Scan type : Progressive
Bits/(Pixel*Frame) : 0.135
Stream size : 923 MiB (62%)
Title : Frozen II (2019). By optik.1557
Writing library : x264 core 159 r2991 1771b55
Encoding settings : cabac=1 / ref=12 / deblock=1:-3:-2 / analyse=0x3:0x133 / me=umh / subme=10 / psy=1 / psy_rd=1.05:0.01 / mixed_ref=1 / me_range=48 / chroma_me=1 / trellis=2 / 8x8dct=1 / cqm=0 / deadzone=21,11 / fast_pskip=0 / chroma_qp_offset=-2 / threads=6 / lookahead_threads=1 / sliced_threads=0 / nr=0 / decimate=0 / interlaced=0 / bluray_compat=0 / constrained_intra=0 / bframes=15 / b_pyramid=2 / b_adapt=2 / b_bias=0 / direct=3 / weightb=1 / open_gop=0 / weightp=2 / keyint=250 / keyint_min=23 / scenecut=40 / intra_refresh=0 / rc_lookahead=60 / rc=2pass / mbtree=0 / bitrate=1250 / ratetol=1.0 / qcomp=0.70 / qpmin=0 / qpmax=69 / qpstep=4 / cplxblur=20.0 / qblur=0.5 / vbv_maxrate=50000 / vbv_bufsize=62500 / nal_hrd=none / filler=0 / ip_ratio=1.40 / pb_ratio=1.30 / aq=3:0.85
Language : English
Default : Yes
Forced : No
Color range : Limited
Matrix coefficients : BT.709
Audio #1
ID : 2
Format : AC-3
Format/Info : Audio Coding 3
Commercial name : Dolby Digital
Codec ID : A_AC3
Duration : 1 h 43 min
Bit rate mode : Constant
Bit rate : 384 kb/s
Channel(s) : 6 channels
Channel layout : L R C LFE Ls Rs
Sampling rate : 48.0 kHz
Frame rate : 31.250 FPS (1536 SPF)
Compression mode : Lossy
Stream size : 283 MiB (19%)
Title : Дубляж (iTunes)
Language : Russian
Service kind : Complete Main
Default : Yes
Forced : No
Audio #2
ID : 3
Format : AC-3
Format/Info : Audio Coding 3
Commercial name : Dolby Digital
Codec ID : A_AC3
Duration : 1 h 43 min
Bit rate mode : Constant
Bit rate : 384 kb/s
Channel(s) : 6 channels
Channel layout : L R C LFE Ls Rs
Sampling rate : 48.0 kHz
Frame rate : 31.250 FPS (1536 SPF)
Compression mode : Lossy
Stream size : 284 MiB (19%)
Title : Original
Language : English
Service kind : Complete Main
Default : No
Forced : No
Text #1
ID : 4
Format : UTF-8
Codec ID : S_TEXT/UTF8
Codec ID/Info : UTF-8 Plain Text
Duration : 1 h 41 min
Bit rate : 72 b/s
Count of elements : 1312
Stream size : 53.9 KiB (0%)
Title : Полные
Language : Russian
Default : No
Forced : No
Text #2
ID : 5
Format : UTF-8
Codec ID : S_TEXT/UTF8
Codec ID/Info : UTF-8 Plain Text
Duration : 1 h 42 min
Bit rate : 95 b/s
Count of elements : 1810
Stream size : 71.6 KiB (0%)
Title : Полные (SDH)
Language : Russian
Default : No
Forced : No
Text #3
ID : 6
Format : UTF-8
Codec ID : S_TEXT/UTF8
Codec ID/Info : UTF-8 Plain Text
Duration : 1 h 41 min
Bit rate : 56 b/s
Count of elements : 1560
Stream size : 42.0 KiB (0%)
Title : Full
Language : English
Default : No
Forced : No
Text #4
ID : 7
Format : UTF-8
Codec ID : S_TEXT/UTF8
Codec ID/Info : UTF-8 Plain Text
Duration : 1 h 42 min
Bit rate : 68 b/s
Count of elements : 1930
Stream size : 51.2 KiB (0%)
Title : Full (SDH)
Language : English
Default : No
Forced : No
Menu
00:00:00.000 : en:Chapter 1
00:05:42.592 : en:Chapter 2
00:08:27.716 : en:Chapter 3
00:15:01.400 : en:Chapter 4
00:16:29.655 : en:Chapter 5
00:21:25.117 : en:Chapter 6
00:25:45.252 : en:Chapter 7
00:29:08.914 : en:Chapter 8
00:33:45.023 : en:Chapter 9
00:40:27.216 : en:Chapter 10
00:44:37.925 : en:Chapter 11
00:47:42.318 : en:Chapter 12
00:53:04.515 : en:Chapter 13
00:55:27.241 : en:Chapter 14
01:02:36.711 : en:Chapter 15
01:09:57.527 : en:Chapter 16
01:13:48.382 : en:Chapter 17
01:19:26.637 : en:Chapter 18
01:24:28.146 : en:Chapter 19
01:31:17.263 : en:Chapter 20
[erzsebet.org].t2924575.torrent
Торрент: Зарегистрирован [ 2020-06-30 10:49 ]

Скачать .torrent

Скачать

15 KB

Статус: проверено
Скачан: 0 раз
Размер: 1.46 GB
Поблагодарили: 0  Спасибо
terms.php
Связанные раздачи
Добавлен Темы Размер S / L Ссылка
28-Фев-20 16:25 Холодное сердце 2 / Frozen II (Крис Бак / Chris Buck, Дженнифер Ли / Jennifer Lee) [2019, США, мультфильм, мюзикл, фэнтези, приключения, семейный, BDRip 720p] Dub (Rus, Ukr) + Sub (Rus, Eng) + Original EngОтв. 0 4.46 GB | Скачать .torrent
28-Фев-20 16:24 Холодное сердце 2 / Frozen II (Крис Бак / Chris Buck, Дженнифер Ли / Jennifer Lee) [2019, США, мультфильм, мюзикл, фэнтези, приключения, семейный, UHD BDRemux 2160p] Dub (iTunes) + Sub (Rus, Eng) + Original EngОтв. 0 53.08 GB | Скачать .torrent
28-Фев-20 16:22 Холодное сердце 2 / Frozen II (Крис Бак / Chris Buck, Дженнифер Ли / Jennifer Lee) [2019, США, мультфильм, мюзикл, фэнтези, приключения, семейный, BDRip 1080p] Dub (Rus, Ukr) + Sub (Rus, Eng) + Original EngОтв. 0 9.82 GB | Скачать .torrent
[Профиль]  [ЛС] 
Показать сообщения:    
Ответить на тему

Текущее время: 12-Июл 04:32

Часовой пояс: UTC + 3



Вы не можете начинать темы
Вы не можете отвечать на сообщения
Вы не можете редактировать свои сообщения
Вы не можете удалять свои сообщения
Вы не можете голосовать в опросах
Вы не можете прикреплять файлы к сообщениям
Вы можете скачивать файлы