Тролли. Мировой тур / Trolls World Tour (Уолт Дорн / Walt Dohrn, Дэвид П. Смит / David P. Smith) [2020, США, мультфильм, мюзикл, фэнтези, комедия, приключения, семейный, BDRip] Dub

Ответить на тему
Статистика раздачи
Размер:  1.47 GB   |    Зарегистрирован:  10 дней   |    Скачан:  0 раз
Сидов:  1   Личеров:  1  
 
 
Автор Сообщение

erzsebet ®

Стаж: 18 лет

Сообщений: 470810

Откуда: Венгрия

Создавать темы 30-Июн-2020 10:49  |  Сменить автора

[Цитировать] 

Тролли. Мировой тур / Trolls World Tour
«Счастье будет всем!»
- Год выхода: 2020
Страна: США
Жанр: мультфильм, мюзикл, фэнтези, комедия, приключения, семейный
Продолжительность: 01:30:43
Перевод: Профессиональный (полное дублирование)
Субтитры: нет-Режиссер:
Уолт Дорн / Walt Dohrn, Дэвид П. Смит / David P. Smith-В ролях:
Джастин Тимберлейк, Анна Кендрик, Джеймс Корден, Оззи Осборн, Рэйчел Блум, Андерсон Паак, Джордж Клинтон, Мэри Джей Блайдж, Келли Кларксон, Сэм Рокуэлл-О фильме:
Поп-тролли в шоке — оказывается, мир музыки гораздо больше, чем они думали. Рейвы, оупен-эйры, классические концерты и, конечно, хип-хоп баттлы — впереди их ждет головокружительное веселье.
Но неудержимая королева Рокс планирует уничтожить все… чтобы миром безоговорочно правил хард-рок!
Розочка, Цветан и их новые друзья отправляются в невероятное путешествие: им предстоит объединить всех троллей и помешать Рокс.-Релиз групп | | IMDB | КиноПоиск | Сэмпл |-Качество: BDRip [Trolls.World.Tour.2020.BDREMUX.1080p.seleZen]
Формат: AVI
Видео: 720x304 (2.37:1), 23.976 fps, XviD build 69 ~1923 kbps avg, 0.37 bit/pixel
Аудио: 48 kHz, AC3 Dolby Digital, 3/2 (L,C,R,l,r) + LFE ch, ~384 kbps avg-

Скриншоты

-

MediaInfo

Код:Общее
Полное имя : E:\Trolls_World_Tour_2020_BDRip_by_Dalemake.avi
Формат : AVI
Формат/Информация : Audio Video Interleave
Размер файла : 1,47 Гбайт
Продолжительность : 1 ч. 30 м.
Общий поток : 2 317 Кбит/сек
Программа кодирования : VirtualDubMod 1.5.10.3 | www.virtualdub-fr.org || (build 2550/release)
Библиотека кодирования : VirtualDubMod build 2550/release
Видео
Идентификатор : 0
Формат : MPEG-4 Visual
Профиль формата : Advanced [email protected]
Настройки формата : BVOP2 / Custom Matrix
Параметр BVOP формата : 2
Параметр QPel формата : Нет
Параметр GMC формата : Без точки перехода
Параметр матрицы формата : Выборочная
Идентификатор кодека : XVID
Идентификатор кодека/Подсказка : XviD
Продолжительность : 1 ч. 30 м.
Битрейт : 1 924 Кбит/сек
Ширина : 720 пикселей
Высота : 304 пикселя
Соотношение сторон : 2,35:1
Частота кадров : 23,976 (24000/1001) кадра/сек
Частота кадров в оригинале : 23,976 (23976/1000) кадра/сек
Цветовое пространство : YUV
Субдискретизация насыщенности : 4:2:0
Битовая глубина : 8 бит
Тип развёртки : Прогрессивная
Метод сжатия : С потерями
Бит/(Пиксели*Кадры) : 0.367
Размер потока : 1,22 Гбайт (83%)
Библиотека кодирования : XviD 69
Аудио
Идентификатор : 1
Формат : AC-3
Формат/Информация : Audio Coding 3
Коммерческое название : Dolby Digital
Идентификатор кодека : 2000
Продолжительность : 1 ч. 30 м.
Вид битрейта : Постоянный
Битрейт : 384 Кбит/сек
Каналы : 6 каналов
Channel layout : L R C LFE Ls Rs
Частота : 48,0 КГц
Частота кадров : 31,250 кадров/сек (1536 SPF)
Метод сжатия : С потерями
Размер потока : 249 Мбайт (17%)
Выравнивание : Разделение по промежуткам
Продолжительность промежутка : 42 мс. (1,00 видеокадр)
Время предзагрузки промежутка : 500 мс.
Service kind : Complete Main
-
[erzsebet.org].t2924576.torrent
Торрент: Зарегистрирован [ 2020-06-30 10:49 ]

Скачать .torrent

Скачать

15 KB

Статус: проверено
Скачан: 0 раз
Размер: 1.47 GB
Поблагодарили: 0  Спасибо
terms.php
Связанные раздачи
Добавлен Темы Размер S / L Ссылка
30-Июн-20 10:49 Тролли. Мировой тур / Trolls World Tour (Уолт Дорн / Walt Dohrn, Дэвид П. Смит / David P. Smith) [2020, США, мультфильм, мюзикл, фэнтези, комедия, приключения, семейный, BDRip-AVC] Dub + Original (Eng) + Sub (Eng)Отв. 0 1.45 GB | Скачать .torrent
30-Июн-20 10:49 Тролли. Мировой тур / Trolls World Tour (Уолт Дорн / Walt Dohrn, Дэвид П. Смит / David P. Smith) [2020, США, мультфильм, мюзикл, фэнтези, комедия, приключения, семейный, BDRip-AVC] Dub + Original (Eng) + Sub (Eng)Отв. 0 2.27 GB | Скачать .torrent
24-Апр-20 03:51 Тролли. Мировой тур / Trolls World Tour (Уолт Дорн / Walt Dohrn, Дэвид П. Смит / David P. Smith) [2020, США, мультфильм, мюзикл, фэнтези, комедия, приключения,, WEB-DL 1080p] Dub (iTunes) + Sub Eng + Original EngОтв. 0 5.72 GB | Скачать .torrent
[Профиль]  [ЛС] 
Показать сообщения:    
Ответить на тему

Текущее время: 11-Июл 01:43

Часовой пояс: UTC + 3



Вы не можете начинать темы
Вы не можете отвечать на сообщения
Вы не можете редактировать свои сообщения
Вы не можете удалять свои сообщения
Вы не можете голосовать в опросах
Вы не можете прикреплять файлы к сообщениям
Вы можете скачивать файлы