Камуфляж и шпионаж / Spies in Disguise (Ник Бруно / Nick Bruno, Трой Квон / Troy Quane) [2019, США, мультфильм, фантастика, боевик, комедия, приключения, BDRip-AVC] Dub + Sub (Rus, Ukr, Eng, Fra) + Original Eng

Ответить на тему
Статистика раздачи
Размер:  1.46 GB   |    Зарегистрирован:  10 дней   |    Скачан:  0 раз
Сидов:  1   Личеров:  1  
 
 
Автор Сообщение

erzsebet ®

Стаж: 18 лет

Сообщений: 470810

Откуда: Венгрия

Создавать темы 30-Июн-2020 10:49  |  Сменить автора

[Цитировать] 

Камуфляж и шпионаж / Spies in Disguise
Страна: США
Жанр: мультфильм, фантастика, боевик, комедия, приключения
Год выпуска: 2019
Продолжительность: 01:41:51
Перевод: Профессиональный (дублированный) iTunes
Оригинальная Аудиодорожка: английский
Субтитры: Русские (Форсированные, Полные), Украинские (Форсированные, Полные), Английские (Forced, Full, SDH), Французские (Full)
Навигация по главам: есть--Режиссер: Ник Бруно / Nick Bruno, Трой Квон / Troy Quane--В ролях: Карен Гиллан, Рэйчел Броснахэн, Том Холланд, Уилл Смит, Рашида Джонс, Бен Мендельсон, Риба МакИнтайр, Стефания Спампинато, Маси Ока, Карла Хименес, D.J. Халед...--Описание: Супершпион Лэнс Стерлинг и молодой ученый Уолтер Беккет - полные противоположности. Жизнерадостный Лэнс с удовольствием каждый день спасает города и страны. Хмурый Уолтер хочет отгородиться от всех в мире собственных изобретений и гаджетов. Но когда события принимают неожиданный оборот, этот маловероятный дуэт вынужден объединиться и проявить все свои способности в совершенно новом ключе. Странной паре потребуются невероятные чудеса маскировки ради спасения всего мира.--Доп. информация: | IMDB | КиноПоиск | Сэмпл | --Качество видео: BDRip-AVC Spies in Disguise (2019) Blu-ray Remux -BLUEBIRD
Формат видео: MKV
Видео: AVC, 960x402 (2.40:1), 1278 kbps, 23.976 fps, 0.138 bit/pixel
Аудио 1: AC3 Dolby Digital, 3/2 (L,C,R,l,r) + LFE ch, 48.0 KHz, 384 Kbps | Дубляж |
Аудио 2: AC3 Dolby Digital, 3/2 (L,C,R,l,r) + LFE ch, 48.0 KHz, 384 Kbps | Original |
Формат субтитров: softsub (SRT)

Скриншоты

MediaInfo/x264

x264

raw [info]: 960x402p 1:1 @ 24000/1001 fps (cfr)
x264 [info]: using SAR=1/1
x264 [info]: using cpu capabilities: MMX2 SSE2Fast SSSE3 SSE4.2 AVX
x264 [info]: profile High, level 4.1, 4:2:0, 8-bit
x264 [info]: frame I:1152 Avg QP:16.36 size: 47764
x264 [info]: frame P:31898 Avg QP:20.48 size: 14044
x264 [info]: frame B:113469 Avg QP:22.70 size: 4166
x264 [info]: consecutive B-frames: 2.9% 2.8% 7.7% 20.0% 16.2% 33.3% 6.0% 3.7% 1.0% 0.8% 0.6% 3.5% 0.7% 0.2% 0.3% 0.3%
x264 [info]: mb I I16..4: 7.3% 71.5% 21.2%
x264 [info]: mb P I16..4: 3.5% 13.1% 2.8% P16..4: 42.7% 17.6% 13.0% 0.5% 0.2% skip: 6.7%
x264 [info]: mb B I16..4: 0.3% 1.1% 0.3% B16..8: 36.4% 9.0% 2.3% direct: 4.2% skip:46.5% L0:45.7% L1:44.8% BI: 9.4%
x264 [info]: 8x8 transform intra:67.9% inter:67.1%
x264 [info]: direct mvs spatial:96.4% temporal:3.6%
x264 [info]: coded y,uvDC,uvAC intra: 71.6% 75.0% 46.7% inter: 15.6% 17.2% 5.7%
x264 [info]: i16 v,h,dc,p: 22% 21% 8% 49%
x264 [info]: i8 v,h,dc,ddl,ddr,vr,hd,vl,hu: 13% 9% 7% 9% 14% 12% 14% 10% 12%
x264 [info]: i4 v,h,dc,ddl,ddr,vr,hd,vl,hu: 15% 8% 4% 10% 14% 13% 14% 10% 13%
x264 [info]: i8c dc,h,v,p: 36% 27% 19% 18%
x264 [info]: Weighted P-Frames: Y:7.8% UV:5.6%
x264 [info]: ref P L0: 49.5% 9.5% 15.1% 7.3% 5.2% 3.9% 3.1% 1.8% 1.5% 1.2% 1.0% 0.8% 0.1% 0.0%
x264 [info]: ref B L0: 69.2% 14.2% 6.5% 3.1% 2.2% 1.7% 1.3% 0.7% 0.6% 0.4% 0.1%
x264 [info]: ref B L1: 92.8% 7.2%
x264 [info]: kb/s:1277.29
General
Unique ID : 253748812862054638831587363599270244434 (0xBEE63E6368EDF196A07ABEA236DB7052)
Complete name : Spies in Disguise (2019).mkv
Format : Matroska
Format version : Version 4
File size : 1.46 GiB
Duration : 1 h 41 min
Overall bit rate : 2 048 kb/s
Movie name : Камуфляж и шпионаж / Spies in Disguise (2019)
Encoded date : UTC 2020-03-14 07:18:11
Writing application : mkvmerge v8.1.0 ('Psychedelic Postcard') 64bit
Writing library : libebml v1.3.1 + libmatroska v1.4.2
Cover : Yes
Attachments : cover.jpg
Video
ID : 1
Format : AVC
Format/Info : Advanced Video Codec
Format profile : [email protected]
Format settings : CABAC / 12 Ref Frames
Format settings, CABAC : Yes
Format settings, Reference : 12 frames
Codec ID : V_MPEG4/ISO/AVC
Duration : 1 h 41 min
Bit rate : 1 278 kb/s
Width : 960 pixels
Height : 402 pixels
Display aspect ratio : 2.40:1
Frame rate mode : Constant
Frame rate : 23.976 (24000/1001) FPS
Color space : YUV
Chroma subsampling : 4:2:0
Bit depth : 8 bits
Scan type : Progressive
Bits/(Pixel*Frame) : 0.138
Stream size : 931 MiB (62%)
Title : Spies in Disguise (2019) By optik.1557
Writing library : x264 core 159 r2991 1771b55
Encoding settings : cabac=1 / ref=12 / deblock=1:-3:-2 / analyse=0x3:0x133 / me=umh / subme=10 / psy=1 / psy_rd=1.05:0.01 / mixed_ref=1 / me_range=48 / chroma_me=1 / trellis=2 / 8x8dct=1 / cqm=0 / deadzone=21,11 / fast_pskip=0 / chroma_qp_offset=-2 / threads=6 / lookahead_threads=1 / sliced_threads=0 / nr=0 / decimate=0 / interlaced=0 / bluray_compat=0 / constrained_intra=0 / bframes=15 / b_pyramid=2 / b_adapt=2 / b_bias=0 / direct=3 / weightb=1 / open_gop=0 / weightp=2 / keyint=250 / keyint_min=23 / scenecut=40 / intra_refresh=0 / rc_lookahead=60 / rc=2pass / mbtree=0 / bitrate=1278 / ratetol=1.0 / qcomp=0.70 / qpmin=0 / qpmax=69 / qpstep=4 / cplxblur=20.0 / qblur=0.5 / vbv_maxrate=50000 / vbv_bufsize=62500 / nal_hrd=none / filler=0 / ip_ratio=1.40 / pb_ratio=1.30 / aq=3:0.85
Language : English
Default : Yes
Forced : No
Color range : Limited
Matrix coefficients : BT.709
Audio #1
ID : 2
Format : AC-3
Format/Info : Audio Coding 3
Commercial name : Dolby Digital
Codec ID : A_AC3
Duration : 1 h 41 min
Bit rate mode : Constant
Bit rate : 384 kb/s
Channel(s) : 6 channels
Channel layout : L R C LFE Ls Rs
Sampling rate : 48.0 kHz
Frame rate : 31.250 FPS (1536 SPF)
Compression mode : Lossy
Stream size : 280 MiB (19%)
Title : Дубляж (iTunes)
Language : Russian
Service kind : Complete Main
Default : Yes
Forced : No
Audio #2
ID : 3
Format : AC-3
Format/Info : Audio Coding 3
Commercial name : Dolby Digital
Codec ID : A_AC3
Duration : 1 h 41 min
Bit rate mode : Constant
Bit rate : 384 kb/s
Channel(s) : 6 channels
Channel layout : L R C LFE Ls Rs
Sampling rate : 48.0 kHz
Frame rate : 31.250 FPS (1536 SPF)
Compression mode : Lossy
Stream size : 280 MiB (19%)
Title : Original
Language : English
Service kind : Complete Main
Default : No
Forced : No
Text #1
ID : 4
Format : UTF-8
Codec ID : S_TEXT/UTF8
Codec ID/Info : UTF-8 Plain Text
Duration : 1 h 40 min
Bit rate : 2 b/s
Count of elements : 48
Stream size : 1.85 KiB (0%)
Title : Форсированные
Language : Russian
Default : Yes
Forced : No
Text #2
ID : 5
Format : UTF-8
Codec ID : S_TEXT/UTF8
Codec ID/Info : UTF-8 Plain Text
Duration : 1 h 40 min
Bit rate : 79 b/s
Count of elements : 1455
Stream size : 58.7 KiB (0%)
Title : Полные
Language : Russian
Default : No
Forced : No
Text #3
ID : 6
Format : UTF-8
Codec ID : S_TEXT/UTF8
Codec ID/Info : UTF-8 Plain Text
Duration : 1 h 40 min
Bit rate : 3 b/s
Count of elements : 51
Stream size : 2.31 KiB (0%)
Title : Форсированные
Language : Ukrainian
Default : No
Forced : No
Text #4
ID : 7
Format : UTF-8
Codec ID : S_TEXT/UTF8
Codec ID/Info : UTF-8 Plain Text
Duration : 1 h 40 min
Bit rate : 98 b/s
Count of elements : 1456
Stream size : 72.2 KiB (0%)
Title : Полные
Language : Ukrainian
Default : No
Forced : No
Text #5
ID : 8
Format : UTF-8
Codec ID : S_TEXT/UTF8
Codec ID/Info : UTF-8 Plain Text
Duration : 1 h 18 min
Bit rate : 0 b/s
Count of elements : 6
Stream size : 142 Bytes (0%)
Title : Forced
Language : English
Default : No
Forced : No
Text #6
ID : 9
Format : UTF-8
Codec ID : S_TEXT/UTF8
Codec ID/Info : UTF-8 Plain Text
Duration : 1 h 31 min
Bit rate : 60 b/s
Count of elements : 1573
Stream size : 40.7 KiB (0%)
Title : Full
Language : English
Default : No
Forced : No
Text #7
ID : 10
Format : UTF-8
Codec ID : S_TEXT/UTF8
Codec ID/Info : UTF-8 Plain Text
Duration : 1 h 41 min
Bit rate : 66 b/s
Count of elements : 1909
Stream size : 49.0 KiB (0%)
Title : SDH
Language : English
Default : No
Forced : No
Text #8
ID : 11
Format : UTF-8
Codec ID : S_TEXT/UTF8
Codec ID/Info : UTF-8 Plain Text
Duration : 1 h 40 min
Bit rate : 60 b/s
Count of elements : 1463
Stream size : 44.3 KiB (0%)
Title : Full
Language : French
Default : No
Forced : No
Menu
00:00:00.000 : :Chapter 1
00:04:09.499 : :Chapter 2
00:06:54.497 : :Chapter 3
00:11:53.838 : :Chapter 4
00:15:31.013 : :Chapter 5
00:20:35.484 : :Chapter 6
00:23:20.858 : :Chapter 7
00:26:42.434 : :Chapter 8
00:30:59.524 : :Chapter 9
00:36:06.581 : :Chapter 10
00:41:34.951 : :Chapter 11
00:45:41.947 : :Chapter 12
00:49:57.786 : :Chapter 13
00:53:58.902 : :Chapter 14
00:56:34.308 : :Chapter 15
01:00:06.770 : :Chapter 16
01:08:46.914 : :Chapter 17
01:12:51.784 : :Chapter 18
01:17:34.275 : :Chapter 19
01:20:18.939 : :Chapter 20
01:23:19.077 : :Chapter 21
01:26:05.243 : :Chapter 22
01:29:47.173 : :Chapter 23
01:33:08.875 : :Chapter 24
[erzsebet.org].t2924577.torrent
Торрент: Зарегистрирован [ 2020-06-30 10:49 ]

Скачать .torrent

Скачать

15 KB

Статус: проверено
Скачан: 0 раз
Размер: 1.46 GB
Поблагодарили: 0  Спасибо
terms.php
Связанные раздачи
Добавлен Темы Размер S / L Ссылка
03-Май-20 10:24 Камуфляж и шпионаж / Spies in Disguise (Ник Бруно, Трой Квон / Nick Bruno, Troy Quane) [2019, США, Мультфильм, фантастика, боевик, комедия, приключения, семейный, BDRemux 1080p] Dub + Original (Eng) + Sub (rus, ukr, eng)Отв. 0 20.7 GB | Скачать .torrent
[Профиль]  [ЛС] 
Показать сообщения:    
Ответить на тему

Текущее время: 11-Июл 01:09

Часовой пояс: UTC + 3



Вы не можете начинать темы
Вы не можете отвечать на сообщения
Вы не можете редактировать свои сообщения
Вы не можете удалять свои сообщения
Вы не можете голосовать в опросах
Вы не можете прикреплять файлы к сообщениям
Вы можете скачивать файлы