Эверест / Abominable (Джилл Калтон / Jill Culton, Тодд Вилдерман / Todd Wilderman) [2019, Китай, США, мультфильм, фэнтези, комедия, приключения, семейный, BDRip] Dub (iTunes)

Ответить на тему
Статистика раздачи
Размер:  1.46 GB   |    Зарегистрирован:  11 дней   |    Скачан:  0 раз
Сидов:  1   Личеров:  1  
 
 
Автор Сообщение

erzsebet ®

Стаж: 18 лет

Сообщений: 471164

Откуда: Венгрия

Создавать темы 30-Июн-2020 10:49  |  Сменить автора

[Цитировать] 

Эверест / Abominable
Страна: Китай, США
Жанр: мультфильм, фэнтези, комедия, приключения, семейный
Год выпуска: 2019
Продолжительность: 01:37:13-Перевод: Профессиональный (дублированный) | iTunes
Субтитры: нет
Оригинальная аудиодорожка: нет-Режиссер:
Джилл Калтон / Jill Culton, Тодд Вилдерман / Todd Wilderman-В ролях: Хлоя Беннет, Альберт Цай, Тензинг Норгай Трэйнор, Джозеф Иццо, Эдди Иззард, Сара Полсон, Цай Чинь, Мишель Вонг, Рич Дитль, Джеймс Хонг-Описание: Путешествие на самую высокую точку мира? Что может быть круче! Так решает Лу, когда случайно находит огромное, но очень милое чудовище посреди шумного мегаполиса. Пусть их преследуют ученые из сверхсекретной лаборатории, зато её новый друг умеет смешить и творить чудеса. Лу уверена, что поможет дружелюбному йети вернуться домой - на Эверест.- -Качество видео: BDRip | Abominable.2019.BDRemux.TeamHD-potroks
Формат видео: AVI
Видео: 720x384 (1.88:1), 23.976 fps, XviD build 73 ~1751 kbps avg, 0.26 bit/pixel
Аудио: 48 kHz, AC3 Dolby Digital, 3/2 (L,C,R,l,r) + LFE ch, ~384 kbps-[box]Сэмпл[/box]-

MediaInfo

Код:
Формат : AVI
Формат/Информация : Audio Video Interleave
Размер файла : 1,46 Гбайт
Продолжительность : 1 ч. 37 м.
Общий поток : 2144 Кбит/сек
Название фильма : Эверест_2019_BDRip
Программа кодирования : VirtualDubMod 1.5.10.3 | www.virtualdub-fr.org || (build 2550/release)
Авторское право : порошков
Видео
Идентификатор : 0
Формат : MPEG-4 Visual
Профиль формата : Advanced [email protected]
Настройки формата : BVOP1 / Custom Matrix
Параметр BVOP формата : 1
Параметр QPel формата : Нет
Параметр GMC формата : Без точки перехода
Параметр матрицы формата : Выборочная
Идентификатор кодека : XVID
Идентификатор кодека/Подсказка : XviD
Продолжительность : 1 ч. 37 м.
Битрейт : 1751 Кбит/сек
Ширина : 720 пикселей
Высота : 384 пикселя
Соотношение сторон : 1,85:1
Частота кадров : 23,976 (24000/1001) кадра/сек
Цветовое пространство : YUV
Субдискретизация насыщенности : 4:2:0
Битовая глубина : 8 бит
Тип развёртки : Прогрессивная
Метод сжатия : С потерями
Бит/(Пиксели*Кадры) : 0.264
Размер потока : 1,19 Гбайт (82%)
Библиотека кодирования : XviD 73
Аудио
Идентификатор : 1
Формат : AC-3
Формат/Информация : Audio Coding 3
Коммерческое название : Dolby Digital
Идентификатор кодека : 2000
Продолжительность : 1 ч. 37 м.
Вид битрейта : Постоянный
Битрейт : 384 Кбит/сек
Каналы : 6 каналов
ChannelLayout : L R C LFE Ls Rs
Частота : 48,0 КГц
Частота кадров : 31,250 кадров/сек (1536 SPF)
Метод сжатия : С потерями
Размер потока : 267 Мбайт (18%)
Выравнивание : Разделение по промежуткам
Продолжительность промежутка : 42 мс. (1,00 видеокадр)
Время предзагрузки промежутка : 500 мс.
ServiceKind/String : Complete Main

Скриншоты


[erzsebet.org].t2924579.torrent
Торрент: Зарегистрирован [ 2020-06-30 10:49 ]

Скачать .torrent

Скачать

15 KB

Статус: проверено
Скачан: 0 раз
Размер: 1.46 GB
Поблагодарили: 0  Спасибо
terms.php
Связанные раздачи
Добавлен Темы Размер S / L Ссылка
24-Мар-20 11:14 Эверест / Abominable (Джилл Калтон, Тодд Вилдерман / Jill Culton, Todd Wilderman) [2019, США, Китай, Мультфильм, фэнтези, комедия, приключения, семейный, DVD5 (сжатый)] исх. R5, Dub + Sub Rus + Original EngОтв. 0 4.32 GB | Скачать .torrent
24-Мар-20 11:14 Эверест / Abominable (Джилл Калтон, Тодд Вилдерман / Jill Culton, Todd Wilderman) [2019, США, Китай, Мультфильм, фэнтези, комедия, приключения, семейный, DVD9] R5 Dub + Sub Rus + Original EngОтв. 0 7.69 GB | Скачать .torrent
28-Фев-20 16:25 Эверест / Abominable (Джилл Калтон, Тодд Вилдерман / Jill Culton, Todd Wilderman) [2019, США, Китай , Мультфильм, фэнтези, комедия, приключения, семейный, BDRemux 1080p] Dub + Original (Eng) + Sub (rus, eng)Отв. 0 21.34 GB | Скачать .torrent
28-Фев-20 16:25 Эверест / Abominable / Everest (Джилл Калтон, Тодд Вилдерман / Jill Culton, Todd Wilderman) [2019, США, Китай , Мультфильм, фэнтези, комедия, приключения, семейный, BDRip 720p] Dub (Rus, Ukr) + Original (Eng) + Sub (rus, eng)Отв. 0 5.08 GB | Скачать .torrent
[Профиль]  [ЛС] 
Показать сообщения:    
Ответить на тему

Текущее время: 12-Июл 01:49

Часовой пояс: UTC + 3



Вы не можете начинать темы
Вы не можете отвечать на сообщения
Вы не можете редактировать свои сообщения
Вы не можете удалять свои сообщения
Вы не можете голосовать в опросах
Вы не можете прикреплять файлы к сообщениям
Вы можете скачивать файлы