Рапунцель. Дорога к мечте / Tangled: Before Ever After (Том Колфилд / Tom Caulfield, Стивен Сандовал / Stephen Sandoval) [2017, приключения, мультфильм, DVB-AVC] Dub

Ответить на тему
Статистика раздачи
Размер:  972 MB   |    Зарегистрирован:  11 дней   |    Скачан:  0 раз
Сидов:  1   Личеров:  1  
 
 
Автор Сообщение

erzsebet ®

Стаж: 18 лет

Сообщений: 471164

Откуда: Венгрия

Создавать темы 30-Июн-2020 10:49  |  Сменить автора

[Цитировать] 

Рапунцель. Дорога к мечте / Tangled: Before Ever After
Год выпуска: 2017
Страна: США, Walt Disney Television Animation
Жанр: приключения, мультфильм
Продолжительность: 00:51:56
Перевод: Профессиональный (дублированный) Студия "Невафильм" по заказу "The Walt Disney Company"
Режиссёр: Том Колфилд / Tom Caulfield, Стивен Сандовал / Stephen Sandoval
Описание: Прошло полгода после того, как Рапунцель вновь обрела родителей и узнала, что она — принцесса. Совсем скоро должна состояться её коронация, но девушка понимает, что она ещё к этому не готова. Природная любознательность и желание увидеть мир, которого она была лишена в заточении, заставляют будущую принцессу вновь отправиться навстречу захватывающим приключениям.
Доп. информация: Запись (захват) спутниковой трансляции канала "Дисней".

Релиз группы:
Семпл: https://yadi.sk/i/kDg8uEGn3Qq7Ek
Качество видео: DVB
Формат видео: MPEG-TS
Видео: MPEG4 Video (H264), [email protected] (4:3), анаморф, 25 fps, 2300 kbps
Аудио: MPEG Audio, 2 сh, 48 kHz, 192 kbps

MediaInfo

G:\Рапунцель. Дорога к мечте. (2017)_DVB by SLuMeP.ts
General #1
ID : 1 (0x1)
Complete name : G:\Рапунцель. Дорога к мечте. (2017)_DVB by SLuMeP.ts
Format : MPEG-TS
File size : 972 MiB
Duration : 51mn 56s
Overall bit rate mode : Variable
Overall bit rate : 2 617 Kbps
Video #2694
ID : 2694 (0xA86)
Menu ID : 694 (0x2B6)
Format : AVC
Format/Info : Advanced Video Codec
Format profile : [email protected]
Format settings, CABAC : Yes
Format settings, ReFrames : 4 frames
Codec ID : 27
Duration : 51mn 55s
Bit rate : 2 293 Kbps
Width : 720 pixels
Height : 576 pixels
Display aspect ratio : 4:3
Frame rate : 25.000 fps
Standard : PAL
Color space : YUV
Chroma subsampling : 4:2:0
Bit depth : 8 bits
Scan type : MBAFF
Scan order : Top Field First
Bits/(Pixel*Frame) : 0.221
Stream size : 852 MiB (88%)
Color primaries : BT.601 PAL
Transfer characteristics : BT.470 System B, BT.470 System G
Matrix coefficients : BT.601
Audio #3694
ID : 3694 (0xE6E)
Menu ID : 694 (0x2B6)
Format : MPEG Audio
Format version : Version 1
Format profile : Layer 2
Codec ID : 3
Duration : 51mn 56s
Bit rate mode : Constant
Bit rate : 192 Kbps
Channel(s) : 2 channels
Sampling rate : 48.0 KHz
Compression mode : Lossy
Delay relative to video : -120ms
Stream size : 71.3 MiB (7%)
Language : Russian

Скриншоты


[erzsebet.org].t2924580.torrent
Торрент: Зарегистрирован [ 2020-06-30 10:49 ]

Скачать .torrent

Скачать

19 KB

Статус: проверено
Скачан: 0 раз
Размер: 972 MB
Поблагодарили: 0  Спасибо
terms.php
Связанные раздачи
Добавлен Темы Размер S / L Ссылка
12-Сен-19 05:58 Рапунцель. Дорога к мечте / Tangled: Before Ever After (Том Колфилд / Tom Caulfield, Стивен Сандовал / Stephen Sandoval) [2017, США, мультфильм, мюзикл, фэнтези, комедия, приключения, семейный, WEB-DL 1080p] DUB + Original (Eng) + SUB (eng)Отв. 0 2.2 GB | Скачать .torrent
[Профиль]  [ЛС] 
Показать сообщения:    
Ответить на тему

Текущее время: 12-Июл 01:58

Часовой пояс: UTC + 3



Вы не можете начинать темы
Вы не можете отвечать на сообщения
Вы не можете редактировать свои сообщения
Вы не можете удалять свои сообщения
Вы не можете голосовать в опросах
Вы не можете прикреплять файлы к сообщениям
Вы можете скачивать файлы