Бэтмен против Черепашек-ниндзя / Batman vs. Teenage Mutant Ninja Turtles (Джейк Касторена / Jake Castorena) [2019, США, мультфильм, фантастика, боевик, BDRip] MVO (TrainStudio)

Ответить на тему
Статистика раздачи
Размер:  1.46 GB   |    Зарегистрирован:  11 дней   |    Скачан:  0 раз
Сидов:  1   Личеров:  1  
 
 
Автор Сообщение

erzsebet ®

Стаж: 18 лет

Сообщений: 471259

Откуда: Венгрия

Создавать темы 30-Июн-2020 10:49  |  Сменить автора

[Цитировать] 

Бэтмен против Черепашек-ниндзя / Batman vs. Teenage Mutant Ninja Turtles
Страна: США
Жанр: мультфильм, фантастика, боевик
Год выпуска: 2019
Продолжительность: 01:27:07-Перевод: Профессиональный (многоголосый закадровый) | TrainStudio
Субтитры: нет
Оригинальная аудиодорожка: нет-Режиссер:
Джейк Касторена / Jake Castorena-В ролях:
Трой Бэйкер, Эрик Бауза, Даррен Крисс, Кайл Муни, Барон Вон, Карлос Аласраки, Кэс Анвар, Рэйчел Блум, Джон Ди Маджио-Описание:
Бэтмен объединяется с Черепашками-ниндзя, чтобы остановить Шредера и Ра’с аль Гула.- -Качество видео: BDRip
Формат видео: AVI
Видео: 720x400 (1.80:1), 23.976 fps, XviD build 73 ~1937 kbps avg, 0.28 bit/pixel
Аудио: 48 kHz, AC3 Dolby Digital, 3/2 (L,C,R,l,r) + LFE ch, ~448 kbps-[box]Сэмпл[/box]-

MediaInfo

Код:
Формат : AVI
Формат/Информация : Audio Video Interleave
Размер файла : 1,46 Гбайт
Продолжительность : 1 ч. 27 м.
Общий поток : 2395 Кбит/сек
Название фильма : Бэтмен против Черепашек-ниндзя_2019_BDRip
Программа кодирования : VirtualDubMod 1.5.10.3 | www.virtualdub-fr.org || (build 2550/release)
Авторское право : порошков
Видео
Идентификатор : 0
Формат : MPEG-4 Visual
Профиль формата : Advanced [email protected]
Настройки формата : BVOP1 / Custom Matrix
Параметр BVOP формата : 1
Параметр QPel формата : Нет
Параметр GMC формата : Без точки перехода
Параметр матрицы формата : Выборочная
Идентификатор кодека : XVID
Идентификатор кодека/Подсказка : XviD
Продолжительность : 1 ч. 27 м.
Битрейт : 1938 Кбит/сек
Ширина : 720 пикселей
Высота : 400 пикселей
Соотношение сторон : 16:9
Частота кадров : 23,976 (24000/1001) кадра/сек
Цветовое пространство : YUV
Субдискретизация насыщенности : 4:2:0
Битовая глубина : 8 бит
Тип развёртки : Прогрессивная
Метод сжатия : С потерями
Бит/(Пиксели*Кадры) : 0.281
Размер потока : 1,18 Гбайт (81%)
Библиотека кодирования : XviD 73
Аудио
Идентификатор : 1
Формат : AC-3
Формат/Информация : Audio Coding 3
Коммерческое название : Dolby Digital
Идентификатор кодека : 2000
Продолжительность : 1 ч. 27 м.
Вид битрейта : Постоянный
Битрейт : 448 Кбит/сек
Каналы : 6 каналов
ChannelLayout : L R C LFE Ls Rs
Частота : 48,0 КГц
Частота кадров : 31,250 кадров/сек (1536 SPF)
Метод сжатия : С потерями
Размер потока : 279 Мбайт (19%)
Выравнивание : Разделение по промежуткам
Продолжительность промежутка : 42 мс. (1,00 видеокадр)
Время предзагрузки промежутка : 500 мс.
ServiceKind/String : Complete Main

Скриншоты


[erzsebet.org].t2924590.torrent
Торрент: Зарегистрирован [ 2020-06-30 10:49 ]

Скачать .torrent

Скачать

15 KB

Статус: проверено
Скачан: 0 раз
Размер: 1.46 GB
Поблагодарили: 0  Спасибо
terms.php
Связанные раздачи
Добавлен Темы Размер S / L Ссылка
30-Май-20 15:13 Бэтмен против Черепашек-ниндзя / Batman vs. Teenage Mutant Ninja Turtles (Джейк Касторена) [2019 г., мультфильм, фантастика, фэнтези, боевик, комедия, криминал, приключения, WEB-DL 1080p] MVO | [HDrezka Studio], MVO | [ZM-SHOW]Отв. 0 3.44 GB | Скачать .torrent
28-Фев-20 16:21 Бэтмен против Черепашек-ниндзя / Batman vs. Teenage Mutant Ninja Turtles (Джейк Касторена / Jake Castorena) [2019, США, мультфильм, фантастика, боевик, комедия, BDRip 1080p] 4x MVO + Original Eng + rus, eng SubОтв. 0 8.67 GB | Скачать .torrent
18-Сен-19 02:36 Бэтмен против Черепашек-ниндзя / Batman vs. Teenage Mutant Ninja Turtles (Джейк Касторена) [2019, США, Мультфильм, фантастика, фэнтези, боевик, комедия,к, WEB-DL 1080p] MVOОтв. 0 3.51 GB | Скачать .torrent
12-Сен-19 06:02 Бэтмен против Черепашек-ниндзя / Batman vs. Teenage Mutant Ninja Turtles (Джейк Касторена / Jake Castorena) [2019, США, мультфильм, фантастика, фэнтези, боевик, комедия, BDRemux 1080p] 4xMVO + Original Eng + rus, eng subОтв. 0 18.06 GB | Скачать .torrent
[Профиль]  [ЛС] 
Показать сообщения:    
Ответить на тему

Текущее время: 12-Июл 04:29

Часовой пояс: UTC + 3



Вы не можете начинать темы
Вы не можете отвечать на сообщения
Вы не можете редактировать свои сообщения
Вы не можете удалять свои сообщения
Вы не можете голосовать в опросах
Вы не можете прикреплять файлы к сообщениям
Вы можете скачивать файлы