Петсон и Финдус. Маленький мучитель – большая дружба / Pettersson und Findus - Kleiner Quälgeist, große Freundschaft (Али Самади Ахади / Ali Samadi Ahadi) [2014, Германия, мультфильм, комедия, семейный, музыка, BDRip] MVO (Гланц и компания)

Ответить на тему
Статистика раздачи
Размер:  1.45 GB   |    Зарегистрирован:  11 дней   |    Скачан:  0 раз
Сидов:  1   Личеров:  1  
 
 
Автор Сообщение

erzsebet ®

Стаж: 18 лет

Сообщений: 471164

Откуда: Венгрия

Создавать темы 30-Июн-2020 10:49  |  Сменить автора

[Цитировать] 

Петсон и Финдус. Маленький мучитель – большая дружба / Pettersson und Findus - Kleiner Quälgeist, große Freundschaft
Страна: Германия
Жанр: мультфильм, комедия, семейный, музыка
Год выпуска: 2014
Продолжительность: 01:25:48-Перевод: Профессиональный (многоголосый закадровый) | Гланц и компания
Субтитры: нет
Оригинальная аудиодорожка: нет-Режиссер:
Али Самади Ахади / Ali Samadi Ahadi-В ролях: Али Самади Ахади, Али Н. Аскин, Petra Beck, Marlene Bleek, Tom Dewulf, Antes Finley, Макс Хербрехтер, Hanna Krajci, Штефан Курт, Andreas Langsch-Описание: Старик Петсон и кот Финдус живут в маленьком доме на краю шведской деревни. Однажды Петсон пообещал Финдусу лучшее на свете Рождество, но в процессе подготовки все пошло не так. Финдус боится, что праздник придется отменить и старается всеми силами помочь другу — на свой манер. Множество приключений предстоит пережить главным героям фильма, их соседям и друзьям, прежде, чем случится обещанный праздник и такое веселье, которое захватит всех вокруг!- -Качество видео: BDRip | Pettersson und Findus 2014 BDRemux 1080p
Формат видео: AVI
Видео: 720x384 (1.88:1), 25 fps, XviD build 73 ~1965 kbps avg, 0.28 bit/pixel
Аудио: 48 kHz, AC3 Dolby Digital, 3/2 (L,C,R,l,r) + LFE ch, ~448 kbps-[box]Сэмпл[/box]-

MediaInfo

Код:
Формат : AVI
Формат/Информация : Audio Video Interleave
Размер файла : 1,45 Гбайт
Продолжительность : 1 ч. 25 м.
Общий поток : 2423 Кбит/сек
Название фильма : Петсон и Финдус Маленький мучитель - большая дружба_2014_BDRip
Программа кодирования : VirtualDubMod 1.5.10.3 | www.virtualdub-fr.org || (build 2550/release)
Авторское право : порошков
Видео
Идентификатор : 0
Формат : MPEG-4 Visual
Профиль формата : Advanced [email protected]
Настройки формата : BVOP1 / Custom Matrix
Параметр BVOP формата : 1
Параметр QPel формата : Нет
Параметр GMC формата : Без точки перехода
Параметр матрицы формата : Выборочная
Идентификатор кодека : XVID
Идентификатор кодека/Подсказка : XviD
Продолжительность : 1 ч. 25 м.
Битрейт : 1966 Кбит/сек
Ширина : 720 пикселей
Высота : 384 пикселя
Соотношение сторон : 1,85:1
Частота кадров : 25,000 кадров/сек
Цветовое пространство : YUV
Субдискретизация насыщенности : 4:2:0
Битовая глубина : 8 бит
Тип развёртки : Прогрессивная
Метод сжатия : С потерями
Бит/(Пиксели*Кадры) : 0.284
Размер потока : 1,18 Гбайт (81%)
Библиотека кодирования : XviD 73
Аудио
Идентификатор : 1
Формат : AC-3
Формат/Информация : Audio Coding 3
Коммерческое название : Dolby Digital
Идентификатор кодека : 2000
Продолжительность : 1 ч. 25 м.
Вид битрейта : Постоянный
Битрейт : 448 Кбит/сек
Каналы : 6 каналов
ChannelLayout : L R C LFE Ls Rs
Частота : 48,0 КГц
Частота кадров : 31,250 кадров/сек (1536 SPF)
Метод сжатия : С потерями
Размер потока : 275 Мбайт (18%)
Выравнивание : Разделение по промежуткам
Продолжительность промежутка : 40 мс. (1,00 видеокадр)
Время предзагрузки промежутка : 500 мс.
ServiceKind/String : Complete Main

Скриншоты


[erzsebet.org].t2924593.torrent
Торрент: Зарегистрирован [ 2020-06-30 10:49 ]

Скачать .torrent

Скачать

15 KB

Статус: проверено
Скачан: 0 раз
Размер: 1.45 GB
Поблагодарили: 0  Спасибо
terms.php
[Профиль]  [ЛС] 
Показать сообщения:    
Ответить на тему

Текущее время: 12-Июл 02:25

Часовой пояс: UTC + 3



Вы не можете начинать темы
Вы не можете отвечать на сообщения
Вы не можете редактировать свои сообщения
Вы не можете удалять свои сообщения
Вы не можете голосовать в опросах
Вы не можете прикреплять файлы к сообщениям
Вы можете скачивать файлы