Алиса в Стране Чудес / Alice in Wonderland (Клайд Джероними / Clyde Geronimi, Хэмилтон Ласки / Hamilton Luske, Уилфред Джексон / Wilfred Jackson) [1951, США, мультфильм, HDRip] VO (Фертман, Белов) + AVO (Михалёв x2) + Original Eng + Rus, Eng Sub

Ответить на тему
Статистика раздачи
Размер:  2.13 GB   |    Зарегистрирован:  11 дней   |    Скачан:  0 раз
Сидов:  1   Личеров:  1  
 
 
Автор Сообщение

erzsebet ®

Стаж: 18 лет

Сообщений: 471259

Откуда: Венгрия

Создавать темы 30-Июн-2020 10:49  |  Сменить автора

[Цитировать] 

Алиса в Стране Чудес / Alice in Wonderland
Страна: США
Жанр: детский, семейный
Год выпуска: 1951
Продолжительность: 01:15:16
Перевод 1: Одноголосый (закадровый) Александра Фертмана (с кассеты)
Перевод 2: Авторский (одноголосый закадровый) - Алексея Михалёва (ранний перевод)
Перевод 3: Авторский (одноголосый закадровый) - Алексея Михалёва (поздний перевод)
Перевод 4: Одноголосый закадровый - Серегея Белова
Субтитры: русские, английские
Оригинальная аудиодорожка: английский
Режиссер: Клайд Джероними / Clyde Geronimi, Хэмилтон Ласки / Hamilton Luske, Уилфред Джексон / Wilfred Jackson
Композитор: Оливер Уоллес /Oliver Wallace/
Рецензия Михаила Иванова: Великолепные мультипликаторы со студии Уолта Диснея в полной мере передали на экране очарование сказки Льюиса Кэррола.
Качество видео: HDRip >> Сэмпл
Формат видео: AVI
Видео: 720x544 (1.32:1), 23.976 fps, XviD MPEG-4 ~1754 kbps avg, 0.19 bit/pixel
Аудио 1: 48 kHz, AC3 Dolby Digital, 2/0 (L,R) ch, ~192 kbps - перевод Фертмана
Аудио 2: 48 kHz, AC3 Dolby Digital, 3/2 (L,C,R,l,r) + LFE ch, ~448 kbps - перевод Михалёва ранний
Аудио 3: 48 kHz, AC3 Dolby Digital, 3/2 (L,C,R,l,r) + LFE ch, ~448 kbps - перевод Михалёва поздний (отдельно)
Аудио 4: 48 kHz, AC3 Dolby Digital, 3/2 (L,C,R,l,r) + LFE ch, ~448 kbps - перевод Белова (отдельно)
Аудио 5: 48 kHz, AC3 Dolby Digital, 3/2 (L,C,R,l,r) + LFE ch, ~384 kbps - english (отдельно)

MediaInfo

Формат : AVI
Формат/Информация : Audio Video Interleave
Размер файла : 1,46 Гбайт
Продолжительность : 1 ч. 15 м.
Общий поток : 2781 Кбит/сек
Программа кодирования : VirtualDubMod 1.5.10.3 | www.virtualdub-fr.org || (build 2550/release)
Библиотека кодирования : VirtualDubMod build 2550/release
Видео
Идентификатор : 0
Формат : MPEG-4 Visual
Профиль формата : Advanced [email protected]
Параметр BVOP формата : 2
Параметр QPel формата : Нет
Параметр GMC формата : Без точки перехода
Параметр матрицы формата : Выборочная
Идентификатор кодека : XVID
Идентификатор кодека/Подсказка : XviD
Продолжительность : 1 ч. 15 м.
Битрейт : 2127 Кбит/сек
Ширина : 720 пикселей
Высота : 544 пикселя
Соотношение сторон : 4:3
Частота кадров : 23,976 кадра/сек
Цветовое пространство : YUV
Субдискретизация насыщенности : 4:2:0
Битовая глубина : 8 бит
Тип развёртки : Прогрессивная
Метод сжатия : С потерями
Бит/(Пиксели*Кадры) : 0.226
Размер потока : 1,12 Гбайт (76%)
Библиотека кодирования : XviD 73
Аудио #1
Идентификатор : 1
Формат : AC-3
Формат/Информация : Audio Coding 3
Расширение режима : CM (complete main)
Параметр Endianness формата : Big
Идентификатор кодека : 2000
Продолжительность : 1 ч. 15 м.
Вид битрейта : Постоянный
Битрейт : 192 Кбит/сек
Каналы : 2 канала
Расположение каналов : Front: L R
Частота : 48,0 КГц
Битовая глубина : 16 бит
Метод сжатия : С потерями
Размер потока : 103 Мбайт (7%)
Выравнивание : Разделение по промежуткам
Продолжительность промежутка : 42 мс. (1,00 видеокадр)
Время предзагрузки промежутка : 500 мс.
Заголовок : Fertman
Аудио #2
Идентификатор : 2
Формат : AC-3
Формат/Информация : Audio Coding 3
Расширение режима : CM (complete main)
Параметр Endianness формата : Big
Идентификатор кодека : 2000
Продолжительность : 1 ч. 15 м.
Вид битрейта : Постоянный
Битрейт : 448 Кбит/сек
Каналы : 6 каналов
Расположение каналов : Front: L C R, Side: L R, LFE
Частота : 48,0 КГц
Битовая глубина : 16 бит
Метод сжатия : С потерями
Размер потока : 241 Мбайт (16%)
Выравнивание : Разделение по промежуткам
Продолжительность промежутка : 42 мс. (1,00 видеокадр)
Время предзагрузки промежутка : 500 мс.
Заголовок : Mihalev

Скриншоты

Доп. информация: рип сделал Max (polkera) Power, дружественная техническая консультация от xfiles, переводы Михалёва из раздачи dragomire, перевод Белова от makcim73, идейно-творческая поддержка от sasikainen, Джона Фея и "Невероятного Струнного Оркестра", оцифровочно-синхронизационные работы от karlll, перевод Фертмана из коллекции Марины и Саши - ВСЕМ БОЛЬШОЕ СПАСИБО !!
из инета: "Этот перевод был ещё до Михалёва... переводил (Конец 80-х - начало 90-х) не для бизнеса, а скорее, как хобби. Мультики - для дочери ("Полет драконов","Алиса","Том и Джерри"), фильмы для друзей ("пролетая над гнездом кукушки")."
[erzsebet.org].t2924594.torrent
Торрент: Зарегистрирован [ 2020-06-30 10:49 ]

Скачать .torrent

Скачать

12 KB

Статус: проверено
Скачан: 0 раз
Размер: 2.13 GB
Поблагодарили: 0  Спасибо
terms.php
Связанные раздачи
Добавлен Темы Размер S / L Ссылка
28-Фев-20 16:28 Алиса в Стране Чудес / Alice in Wonderland (Клайд Джероними / Clyde Geronimi, Уилфред Джексон / Wilfred Jackson) [1951, мультфильм, мюзикл, фэнтези, приключения, семейный, BDRip 1080p] Dub + MVO + DVO + 2x AVO + rus SubОтв. 0 5.82 GB | Скачать .torrent
12-Сен-19 05:44 Алиса в стране чудес / Alice in Wonderland (Клайд Джероними / Clyde Geronimi, Уилфред Джексон / Wilfred Jackson) [1951, мультфильм, мюзикл, фэнтези, приключения, семейный, BDRemux 1080p]Отв. 0 19.41 GB | Скачать .torrent
12-Сен-19 05:43 Алиса в Стране Чудес / Alice in Wonderland (Клайд Джероними / Clyde Geronimi, Уилфред Джексон / Wilfred Jackson) [1951, США, мультфильм, мюзикл, фэнтези, приключения, семейный, Blu-ray disc 1080p EUR]Отв. 0 40.74 GB | Скачать .torrent
09-Сен-19 05:53 Алиса в стране чудес / Alice in Wonderland (Клайд Джероними / Clyde Geronimi, Уилфред Джексон / Wilfred Jackson) [1951, мультфильм, мюзикл, фэнтези, приключения, семейный, BDRip 720p]Отв. 0 3.17 GB | Скачать .torrent
[Профиль]  [ЛС] 
Показать сообщения:    
Ответить на тему

Текущее время: 12-Июл 04:37

Часовой пояс: UTC + 3



Вы не можете начинать темы
Вы не можете отвечать на сообщения
Вы не можете редактировать свои сообщения
Вы не можете удалять свои сообщения
Вы не можете голосовать в опросах
Вы не можете прикреплять файлы к сообщениям
Вы можете скачивать файлы