Assault That Ass 7 (Jake Malone / Red Light District) [2005, Anal, DP, ATM, Group, Threesome, Gonzo, DVD9] Bailey Nicole, Taryn Thomas, Claire Robbins, Georgia Peach, Saana, Pink

Ответить на тему
Статистика раздачи
Размер:  7.34 GB   |    Зарегистрирован:  11 дней   |    Скачан:  0 раз
Сидов:  2   Личеров:  1  
 
 
Автор Сообщение

erzsebet ®

Стаж: 18 лет

Сообщений: 471259

Откуда: Венгрия

Создавать темы 30-Июн-2020 11:53  |  Сменить автора

[Цитировать] 

Assault That Ass 7
Штурм анального отверстия 7
Год релиза: 2005
Страна: USA
Жанр: Anal, DP, ATM, Group, Threesome, Gonzo
Продолжительность: 03:01:18
Режиссер: Jake Malone
Студия: Red Light District
В ролях:
Bailey Nicole, Taryn Thomas, Claire Robbins, Georgia Peach, Saana, Pink

Описание:
Shameless young sex freaks don't want to waste time with silly, tender romantic sex.
They just want you to get to the point and fill up their bungholes with your thick love muscle.
Enjoy the warm and tight back doors of this batch of porn's finest.
Качество видео: DVD9
Формат видео: DVD-Video

MediaInfo

General
Complete name : /media/erzsebet/ASSAULT_THT_ASS7/VIDEO_TS/VIDEO_TS.BUP
Format : DVD Video
Format profile : Menu
File size : 24.0 KiB
Overall bit rate mode : Variable
FileExtension_Invalid : ifo
Video
ID : 224 (0xE0)
Format : MPEG Video
Format version : Version 2
Bit rate mode : Variable
Width : 720 pixels
Height : 480 pixels
Display aspect ratio : 4:3
Frame rate : 29.970 (29970/1000) FPS
Standard : NTSC
Compression mode : Lossy
Text
Format : RLE
Format/Info : Run-length encoding
Bit depth : 2 bits
General
Complete name : /media/erzsebet/ASSAULT_THT_ASS7/VIDEO_TS/VIDEO_TS.IFO
Format : DVD Video
Format profile : Menu
File size : 24.0 KiB
Overall bit rate mode : Variable
Video
ID : 224 (0xE0)
Format : MPEG Video
Format version : Version 2
Bit rate mode : Variable
Width : 720 pixels
Height : 480 pixels
Display aspect ratio : 4:3
Frame rate : 29.970 (29970/1000) FPS
Standard : NTSC
Compression mode : Lossy
Text
Format : RLE
Format/Info : Run-length encoding
Bit depth : 2 bits
General
Complete name : /media/erzsebet/ASSAULT_THT_ASS7/VIDEO_TS/VIDEO_TS.VOB
Format : MPEG-PS
File size : 114 KiB
Duration : 467 ms
Overall bit rate : 2 000 kb/s
Video
ID : 224 (0xE0)
Format : MPEG Video
Format version : Version 2
Format profile : [email protected]
Format settings : CustomMatrix / BVOP
Format settings, BVOP : Yes
Format settings, Matrix : Custom
Format settings, picture structure : Frame
Duration : 467 ms
Bit rate mode : Constant
Maximum bit rate : 2 000 kb/s
Width : 720 pixels
Height : 480 pixels
Display aspect ratio : 4:3
Frame rate : 29.970 (30000/1001) FPS
Standard : NTSC
Color space : YUV
Chroma subsampling : 4:2:0
Bit depth : 8 bits
Scan type : Interlaced
Scan order : Top Field First
Compression mode : Lossy
Time code of first frame : 00:00:00:01
Time code source : Group of pictures header
Text
ID : 189 (0xBD)-32 (0x20)
Format : RLE
Format/Info : Run-length encoding
Muxing mode : DVD-Video
Menu
General
Complete name : /media/erzsebet/ASSAULT_THT_ASS7/VIDEO_TS/VTS_01_0.BUP
Format : DVD Video
Format profile : Program
File size : 120 KiB
Duration : 3 h 1 min
Overall bit rate mode : Variable
Overall bit rate : 90 b/s
FileExtension_Invalid : ifo
Video
ID : 224 (0xE0)
Format : MPEG Video
Format version : Version 2
Duration : 3 h 1 min
Bit rate mode : Variable
Width : 720 pixels
Height : 480 pixels
Display aspect ratio : 4:3
Frame rate : 29.970 (29970/1000) FPS
Standard : NTSC
Compression mode : Lossy
Audio #1
ID : 128 (0x80)
Format : AC-3
Format/Info : Audio Coding 3
Duration : 3 h 1 min
Channel(s) : 2 channels
Sampling rate : 48.0 kHz
Compression mode : Lossy
Language : English
Audio #2
Format : AC-3
Format/Info : Audio Coding 3
Duration : 3 h 1 min
Channel(s) : 6 channels
Sampling rate : 48.0 kHz
Compression mode : Lossy
Language : English
Audio #3
Format : AC-3
Format/Info : Audio Coding 3
Duration : 3 h 1 min
Channel(s) : 6 channels
Sampling rate : 48.0 kHz
Compression mode : Lossy
Language : English
Audio #4
Format : AC-3
Format/Info : Audio Coding 3
Duration : 3 h 1 min
Channel(s) : 6 channels
Sampling rate : 48.0 kHz
Compression mode : Lossy
Language : English
Audio #5
Format : AC-3
Format/Info : Audio Coding 3
Duration : 3 h 1 min
Channel(s) : 6 channels
Sampling rate : 48.0 kHz
Compression mode : Lossy
Language : English
Audio #6
Format : AC-3
Format/Info : Audio Coding 3
Duration : 3 h 1 min
Channel(s) : 6 channels
Sampling rate : 48.0 kHz
Compression mode : Lossy
Language : English
Audio #7
Format : AC-3
Format/Info : Audio Coding 3
Duration : 3 h 1 min
Channel(s) : 6 channels
Sampling rate : 48.0 kHz
Compression mode : Lossy
Language : English
Audio #8
Format : AC-3
Format/Info : Audio Coding 3
Duration : 3 h 1 min
Channel(s) : 6 channels
Sampling rate : 48.0 kHz
Compression mode : Lossy
Language : English
Text #1
Format : RLE
Format/Info : Run-length encoding
Bit depth : 2 bits
Text #2
Format : RLE
Format/Info : Run-length encoding
Bit depth : 2 bits
Text #3
Format : RLE
Format/Info : Run-length encoding
Bit depth : 2 bits
Text #4
Format : RLE
Format/Info : Run-length encoding
Bit depth : 2 bits
Text #5
Format : RLE
Format/Info : Run-length encoding
Bit depth : 2 bits
Text #6
Format : RLE
Format/Info : Run-length encoding
Bit depth : 2 bits
Text #7
Format : RLE
Format/Info : Run-length encoding
Bit depth : 2 bits
Text #8
Format : RLE
Format/Info : Run-length encoding
Bit depth : 2 bits
Text #9
Format : RLE
Format/Info : Run-length encoding
Bit depth : 2 bits
Text #10
Format : RLE
Format/Info : Run-length encoding
Bit depth : 2 bits
Text #11
Format : RLE
Format/Info : Run-length encoding
Bit depth : 2 bits
Text #12
Format : RLE
Format/Info : Run-length encoding
Bit depth : 2 bits
Text #13
Format : RLE
Format/Info : Run-length encoding
Bit depth : 2 bits
Text #14
Format : RLE
Format/Info : Run-length encoding
Bit depth : 2 bits
Text #15
Format : RLE
Format/Info : Run-length encoding
Bit depth : 2 bits
Text #16
Format : RLE
Format/Info : Run-length encoding
Bit depth : 2 bits
Text #17
Format : RLE
Format/Info : Run-length encoding
Bit depth : 2 bits
Text #18
Format : RLE
Format/Info : Run-length encoding
Bit depth : 2 bits
Text #19
Format : RLE
Format/Info : Run-length encoding
Bit depth : 2 bits
Text #20
Format : RLE
Format/Info : Run-length encoding
Bit depth : 2 bits
Text #21
Format : RLE
Format/Info : Run-length encoding
Bit depth : 2 bits
Text #22
Format : RLE
Format/Info : Run-length encoding
Bit depth : 2 bits
Text #23
Format : RLE
Format/Info : Run-length encoding
Bit depth : 2 bits
Text #24
Format : RLE
Format/Info : Run-length encoding
Bit depth : 2 bits
Text #25
Format : RLE
Format/Info : Run-length encoding
Bit depth : 2 bits
Text #26
Format : RLE
Format/Info : Run-length encoding
Bit depth : 2 bits
Text #27
Format : RLE
Format/Info : Run-length encoding
Bit depth : 2 bits
Text #28
Format : RLE
Format/Info : Run-length encoding
Bit depth : 2 bits
Text #29
Format : RLE
Format/Info : Run-length encoding
Bit depth : 2 bits
Text #30
Format : RLE
Format/Info : Run-length encoding
Bit depth : 2 bits
Text #31
Format : RLE
Format/Info : Run-length encoding
Bit depth : 2 bits
Text #32
Format : RLE
Format/Info : Run-length encoding
Bit depth : 2 bits
Menu
Duration : 3 h 1 min
00:00:00.000 : Chapter 1
00:02:00.000 : Chapter 2
00:06:11.500 : Chapter 3
00:06:53.000 : Chapter 4
00:08:54.500 : Chapter 5
00:12:22.000 : Chapter 6
00:15:43.000 : Chapter 7
00:18:31.000 : Chapter 8
00:22:58.000 : Chapter 9
00:29:01.500 : Chapter 10
00:30:50.000 : Chapter 11
00:34:06.000 : Chapter 12
00:34:40.500 : Chapter 13
00:35:28.500 : Chapter 14
00:37:06.500 : Chapter 15
00:42:48.500 : Chapter 16
00:47:39.500 : Chapter 17
01:00:24.500 : Chapter 18
01:01:56.500 : Chapter 19
01:05:24.500 : Chapter 20
01:08:14.500 : Chapter 21
01:10:07.500 : Chapter 22
01:13:06.500 : Chapter 23
01:21:52.500 : Chapter 24
01:28:31.000 : Chapter 25
01:29:58.000 : Chapter 26
01:33:54.000 : Chapter 27
01:36:18.500 : Chapter 28
01:38:42.000 : Chapter 29
01:40:11.500 : Chapter 30
01:42:31.000 : Chapter 31
01:47:53.500 : Chapter 32
01:51:36.000 : Chapter 33
01:52:42.000 : Chapter 34
01:58:13.000 : Chapter 35
01:59:17.500 : Chapter 36
02:00:32.000 : Chapter 37
02:03:56.500 : Chapter 38
02:06:45.500 : Chapter 39
02:10:02.500 : Chapter 40
02:11:56.500 : Chapter 41
02:20:59.500 : Chapter 42
02:23:09.000 : Chapter 43
02:26:52.000 : Chapter 44
02:28:17.000 : Chapter 45
02:31:11.500 : Chapter 46
02:33:39.500 : Chapter 47
02:36:38.500 : Chapter 48
02:37:39.000 : Chapter 49
02:38:55.000 : Chapter 50
02:42:35.500 : Chapter 51
02:50:58.000 : Chapter 52
02:55:15.500 : Chapter 53
02:58:20.500 : Chapter 54
03:00:03.000 : Chapter 55
03:01:18.000 : Chapter 56
List (Audio) : 0
General
Complete name : /media/erzsebet/ASSAULT_THT_ASS7/VIDEO_TS/VTS_01_0.IFO
Format : DVD Video
Format profile : Program
File size : 120 KiB
Duration : 3 h 1 min
Overall bit rate mode : Variable
Overall bit rate : 90 b/s
Video
ID : 224 (0xE0)
Format : MPEG Video
Format version : Version 2
Duration : 3 h 1 min
Bit rate mode : Variable
Width : 720 pixels
Height : 480 pixels
Display aspect ratio : 4:3
Frame rate : 29.970 (29970/1000) FPS
Standard : NTSC
Compression mode : Lossy
Audio #1
ID : 128 (0x80)
Format : AC-3
Format/Info : Audio Coding 3
Duration : 3 h 1 min
Channel(s) : 2 channels
Sampling rate : 48.0 kHz
Compression mode : Lossy
Language : English
Audio #2
Format : AC-3
Format/Info : Audio Coding 3
Duration : 3 h 1 min
Channel(s) : 6 channels
Sampling rate : 48.0 kHz
Compression mode : Lossy
Language : English
Audio #3
Format : AC-3
Format/Info : Audio Coding 3
Duration : 3 h 1 min
Channel(s) : 6 channels
Sampling rate : 48.0 kHz
Compression mode : Lossy
Language : English
Audio #4
Format : AC-3
Format/Info : Audio Coding 3
Duration : 3 h 1 min
Channel(s) : 6 channels
Sampling rate : 48.0 kHz
Compression mode : Lossy
Language : English
Audio #5
Format : AC-3
Format/Info : Audio Coding 3
Duration : 3 h 1 min
Channel(s) : 6 channels
Sampling rate : 48.0 kHz
Compression mode : Lossy
Language : English
Audio #6
Format : AC-3
Format/Info : Audio Coding 3
Duration : 3 h 1 min
Channel(s) : 6 channels
Sampling rate : 48.0 kHz
Compression mode : Lossy
Language : English
Audio #7
Format : AC-3
Format/Info : Audio Coding 3
Duration : 3 h 1 min
Channel(s) : 6 channels
Sampling rate : 48.0 kHz
Compression mode : Lossy
Language : English
Audio #8
Format : AC-3
Format/Info : Audio Coding 3
Duration : 3 h 1 min
Channel(s) : 6 channels
Sampling rate : 48.0 kHz
Compression mode : Lossy
Language : English
Text #1
Format : RLE
Format/Info : Run-length encoding
Bit depth : 2 bits
Text #2
Format : RLE
Format/Info : Run-length encoding
Bit depth : 2 bits
Text #3
Format : RLE
Format/Info : Run-length encoding
Bit depth : 2 bits
Text #4
Format : RLE
Format/Info : Run-length encoding
Bit depth : 2 bits
Text #5
Format : RLE
Format/Info : Run-length encoding
Bit depth : 2 bits
Text #6
Format : RLE
Format/Info : Run-length encoding
Bit depth : 2 bits
Text #7
Format : RLE
Format/Info : Run-length encoding
Bit depth : 2 bits
Text #8
Format : RLE
Format/Info : Run-length encoding
Bit depth : 2 bits
Text #9
Format : RLE
Format/Info : Run-length encoding
Bit depth : 2 bits
Text #10
Format : RLE
Format/Info : Run-length encoding
Bit depth : 2 bits
Text #11
Format : RLE
Format/Info : Run-length encoding
Bit depth : 2 bits
Text #12
Format : RLE
Format/Info : Run-length encoding
Bit depth : 2 bits
Text #13
Format : RLE
Format/Info : Run-length encoding
Bit depth : 2 bits
Text #14
Format : RLE
Format/Info : Run-length encoding
Bit depth : 2 bits
Text #15
Format : RLE
Format/Info : Run-length encoding
Bit depth : 2 bits
Text #16
Format : RLE
Format/Info : Run-length encoding
Bit depth : 2 bits
Text #17
Format : RLE
Format/Info : Run-length encoding
Bit depth : 2 bits
Text #18
Format : RLE
Format/Info : Run-length encoding
Bit depth : 2 bits
Text #19
Format : RLE
Format/Info : Run-length encoding
Bit depth : 2 bits
Text #20
Format : RLE
Format/Info : Run-length encoding
Bit depth : 2 bits
Text #21
Format : RLE
Format/Info : Run-length encoding
Bit depth : 2 bits
Text #22
Format : RLE
Format/Info : Run-length encoding
Bit depth : 2 bits
Text #23
Format : RLE
Format/Info : Run-length encoding
Bit depth : 2 bits
Text #24
Format : RLE
Format/Info : Run-length encoding
Bit depth : 2 bits
Text #25
Format : RLE
Format/Info : Run-length encoding
Bit depth : 2 bits
Text #26
Format : RLE
Format/Info : Run-length encoding
Bit depth : 2 bits
Text #27
Format : RLE
Format/Info : Run-length encoding
Bit depth : 2 bits
Text #28
Format : RLE
Format/Info : Run-length encoding
Bit depth : 2 bits
Text #29
Format : RLE
Format/Info : Run-length encoding
Bit depth : 2 bits
Text #30
Format : RLE
Format/Info : Run-length encoding
Bit depth : 2 bits
Text #31
Format : RLE
Format/Info : Run-length encoding
Bit depth : 2 bits
Text #32
Format : RLE
Format/Info : Run-length encoding
Bit depth : 2 bits
Menu
Duration : 3 h 1 min
00:00:00.000 : Chapter 1
00:02:00.000 : Chapter 2
00:06:11.500 : Chapter 3
00:06:53.000 : Chapter 4
00:08:54.500 : Chapter 5
00:12:22.000 : Chapter 6
00:15:43.000 : Chapter 7
00:18:31.000 : Chapter 8
00:22:58.000 : Chapter 9
00:29:01.500 : Chapter 10
00:30:50.000 : Chapter 11
00:34:06.000 : Chapter 12
00:34:40.500 : Chapter 13
00:35:28.500 : Chapter 14
00:37:06.500 : Chapter 15
00:42:48.500 : Chapter 16
00:47:39.500 : Chapter 17
01:00:24.500 : Chapter 18
01:01:56.500 : Chapter 19
01:05:24.500 : Chapter 20
01:08:14.500 : Chapter 21
01:10:07.500 : Chapter 22
01:13:06.500 : Chapter 23
01:21:52.500 : Chapter 24
01:28:31.000 : Chapter 25
01:29:58.000 : Chapter 26
01:33:54.000 : Chapter 27
01:36:18.500 : Chapter 28
01:38:42.000 : Chapter 29
01:40:11.500 : Chapter 30
01:42:31.000 : Chapter 31
01:47:53.500 : Chapter 32
01:51:36.000 : Chapter 33
01:52:42.000 : Chapter 34
01:58:13.000 : Chapter 35
01:59:17.500 : Chapter 36
02:00:32.000 : Chapter 37
02:03:56.500 : Chapter 38
02:06:45.500 : Chapter 39
02:10:02.500 : Chapter 40
02:11:56.500 : Chapter 41
02:20:59.500 : Chapter 42
02:23:09.000 : Chapter 43
02:26:52.000 : Chapter 44
02:28:17.000 : Chapter 45
02:31:11.500 : Chapter 46
02:33:39.500 : Chapter 47
02:36:38.500 : Chapter 48
02:37:39.000 : Chapter 49
02:38:55.000 : Chapter 50
02:42:35.500 : Chapter 51
02:50:58.000 : Chapter 52
02:55:15.500 : Chapter 53
02:58:20.500 : Chapter 54
03:00:03.000 : Chapter 55
03:01:18.000 : Chapter 56
List (Audio) : 0
General
Complete name : /media/erzsebet/ASSAULT_THT_ASS7/VIDEO_TS/VTS_01_0.VOB
Format : MPEG-PS
File size : 35.6 MiB
Duration : 29 s 984 ms
Overall bit rate mode : Variable
Overall bit rate : 9 966 kb/s
Video
ID : 224 (0xE0)
Format : MPEG Video
Format version : Version 2
Format profile : [email protected]
Format settings : CustomMatrix / BVOP
Format settings, BVOP : Yes
Format settings, Matrix : Custom
Format settings, GOP : M=3, N=15
Format settings, picture structure : Frame
Duration : 33 ms
Bit rate mode : Variable
Bit rate : 9 575 kb/s
Maximum bit rate : 9 800 kb/s
Width : 720 pixels
Height : 480 pixels
Display aspect ratio : 4:3
Frame rate : 29.970 (30000/1001) FPS
Standard : NTSC
Color space : YUV
Chroma subsampling : 4:2:0
Bit depth : 8 bits
Scan type : Interlaced
Scan order : Top Field First
Compression mode : Lossy
Bits/(Pixel*Frame) : 0.924
Time code of first frame : 01:00:00:00
Time code source : Group of pictures header
GOP, Open/Closed : Open
GOP, Open/Closed of first frame : Closed
Stream size : 39.0 KiB (0%)
Audio
ID : 189 (0xBD)-128 (0x80)
Format : AC-3
Format/Info : Audio Coding 3
Commercial name : Dolby Digital
Muxing mode : DVD-Video
Duration : 29 s 984 ms
Bit rate mode : Constant
Bit rate : 192 kb/s
Channel(s) : 2 channels
Channel layout : L R
Sampling rate : 48.0 kHz
Frame rate : 31.250 FPS (1536 SPF)
Bit depth : 16 bits
Compression mode : Lossy
Stream size : 703 KiB (2%)
Service kind : Complete Main
Text
ID : 189 (0xBD)-32 (0x20)
Format : RLE
Format/Info : Run-length encoding
Muxing mode : DVD-Video
Delay relative to video : 2 s 435 ms
Menu
General
Complete name : /media/erzsebet/ASSAULT_THT_ASS7/VIDEO_TS/VTS_01_1.VOB
Format : MPEG-PS
File size : 1 024 MiB
Duration : 28 min 23 s
Overall bit rate mode : Variable
Overall bit rate : 5 041 kb/s
Video
ID : 224 (0xE0)
Format : MPEG Video
Format version : Version 2
Format profile : [email protected]
Format settings : CustomMatrix / BVOP
Format settings, BVOP : Yes
Format settings, Matrix : Custom
Format settings, GOP : M=3, N=15
Format settings, picture structure : Frame
Duration : 28 min 23 s
Bit rate mode : Variable
Bit rate : 4 748 kb/s
Maximum bit rate : 5 500 kb/s
Width : 720 pixels
Height : 480 pixels
Display aspect ratio : 4:3
Frame rate : 29.970 (30000/1001) FPS
Standard : NTSC
Color space : YUV
Chroma subsampling : 4:2:0
Bit depth : 8 bits
Scan type : Interlaced
Scan order : Top Field First
Compression mode : Lossy
Bits/(Pixel*Frame) : 0.458
Time code of first frame : 00:01:08:27
Time code source : Group of pictures header
GOP, Open/Closed : Closed
Stream size : 964 MiB (94%)
Audio
ID : 189 (0xBD)-128 (0x80)
Format : AC-3
Format/Info : Audio Coding 3
Commercial name : Dolby Digital
Muxing mode : DVD-Video
Duration : 28 min 23 s
Bit rate mode : Constant
Bit rate : 192 kb/s
Channel(s) : 2 channels
Channel layout : L R
Sampling rate : 48.0 kHz
Frame rate : 31.250 FPS (1536 SPF)
Bit depth : 16 bits
Compression mode : Lossy
Stream size : 39.0 MiB (4%)
Service kind : Complete Main
Menu
General
Complete name : /media/erzsebet/ASSAULT_THT_ASS7/VIDEO_TS/VTS_01_2.VOB
Format : MPEG-PS
File size : 1 024 MiB
Duration : 28 min 12 s
Overall bit rate mode : Variable
Overall bit rate : 5 075 kb/s
Video
ID : 224 (0xE0)
Format : MPEG Video
Format version : Version 2
Format profile : [email protected]
Format settings : CustomMatrix / BVOP
Format settings, BVOP : Yes
Format settings, Matrix : Custom
Format settings, GOP : M=3, N=15
Format settings, picture structure : Frame
Duration : 28 min 12 s
Bit rate mode : Variable
Bit rate : 4 782 kb/s
Maximum bit rate : 5 500 kb/s
Width : 720 pixels
Height : 480 pixels
Display aspect ratio : 4:3
Frame rate : 29.970 (30000/1001) FPS
Standard : NTSC
Color space : YUV
Chroma subsampling : 4:2:0
Bit depth : 8 bits
Scan type : Interlaced
Scan order : Top Field First
Compression mode : Lossy
Bits/(Pixel*Frame) : 0.462
Time code of first frame : 00:29:31:12
Time code source : Group of pictures header
GOP, Open/Closed : Closed
Stream size : 965 MiB (94%)
Audio
ID : 189 (0xBD)-128 (0x80)
Format : AC-3
Format/Info : Audio Coding 3
Commercial name : Dolby Digital
Muxing mode : DVD-Video
Duration : 28 min 12 s
Bit rate mode : Constant
Bit rate : 192 kb/s
Channel(s) : 2 channels
Channel layout : L R
Sampling rate : 48.0 kHz
Frame rate : 31.250 FPS (1536 SPF)
Bit depth : 16 bits
Compression mode : Lossy
Delay relative to video : -490 ms
Stream size : 38.7 MiB (4%)
Service kind : Complete Main
Menu
General
Complete name : /media/erzsebet/ASSAULT_THT_ASS7/VIDEO_TS/VTS_01_3.VOB
Format : MPEG-PS
File size : 1 024 MiB
Duration : 28 min 12 s
Overall bit rate mode : Variable
Overall bit rate : 5 074 kb/s
Video
ID : 224 (0xE0)
Format : MPEG Video
Format version : Version 2
Format profile : [email protected]
Format settings : CustomMatrix / BVOP
Format settings, BVOP : Yes
Format settings, Matrix : Custom
Format settings, GOP : M=3, N=15
Format settings, picture structure : Frame
Duration : 28 min 12 s
Bit rate mode : Variable
Bit rate : 4 782 kb/s
Maximum bit rate : 5 500 kb/s
Width : 720 pixels
Height : 480 pixels
Display aspect ratio : 4:3
Frame rate : 29.970 (30000/1001) FPS
Standard : NTSC
Color space : YUV
Chroma subsampling : 4:2:0
Bit depth : 8 bits
Scan type : Interlaced
Scan order : Top Field First
Compression mode : Lossy
Bits/(Pixel*Frame) : 0.462
Time code of first frame : 00:57:41:27
Time code source : Group of pictures header
GOP, Open/Closed : Closed
Stream size : 965 MiB (94%)
Audio
ID : 189 (0xBD)-128 (0x80)
Format : AC-3
Format/Info : Audio Coding 3
Commercial name : Dolby Digital
Muxing mode : DVD-Video
Duration : 28 min 12 s
Bit rate mode : Constant
Bit rate : 192 kb/s
Channel(s) : 2 channels
Channel layout : L R
Sampling rate : 48.0 kHz
Frame rate : 31.250 FPS (1536 SPF)
Bit depth : 16 bits
Compression mode : Lossy
Delay relative to video : -169 ms
Stream size : 38.7 MiB (4%)
Service kind : Complete Main
Menu
General
Complete name : /media/erzsebet/ASSAULT_THT_ASS7/VIDEO_TS/VTS_01_4.VOB
Format : MPEG-PS
File size : 1 024 MiB
Duration : 28 min 12 s
Overall bit rate mode : Variable
Overall bit rate : 5 075 kb/s
Video
ID : 224 (0xE0)
Format : MPEG Video
Format version : Version 2
Format profile : [email protected]
Format settings : CustomMatrix / BVOP
Format settings, BVOP : Yes
Format settings, Matrix : Custom
Format settings, GOP : M=3, N=15
Format settings, picture structure : Frame
Duration : 28 min 12 s
Bit rate mode : Variable
Bit rate : 4 782 kb/s
Maximum bit rate : 5 500 kb/s
Width : 720 pixels
Height : 480 pixels
Display aspect ratio : 4:3
Frame rate : 29.970 (30000/1001) FPS
Standard : NTSC
Color space : YUV
Chroma subsampling : 4:2:0
Bit depth : 8 bits
Scan type : Interlaced
Scan order : Top Field First
Compression mode : Lossy
Bits/(Pixel*Frame) : 0.462
Time code of first frame : 01:25:52:27
Time code source : Group of pictures header
GOP, Open/Closed : Closed
Stream size : 965 MiB (94%)
Audio
ID : 189 (0xBD)-128 (0x80)
Format : AC-3
Format/Info : Audio Coding 3
Commercial name : Dolby Digital
Muxing mode : DVD-Video
Duration : 28 min 12 s
Bit rate mode : Constant
Bit rate : 192 kb/s
Channel(s) : 2 channels
Channel layout : L R
Sampling rate : 48.0 kHz
Frame rate : 31.250 FPS (1536 SPF)
Bit depth : 16 bits
Compression mode : Lossy
Delay relative to video : -444 ms
Stream size : 38.7 MiB (4%)
Service kind : Complete Main
Menu
General
Complete name : /media/erzsebet/ASSAULT_THT_ASS7/VIDEO_TS/VTS_01_5.VOB
Format : MPEG-PS
File size : 1 024 MiB
Duration : 28 min 12 s
Overall bit rate mode : Variable
Overall bit rate : 5 075 kb/s
Video
ID : 224 (0xE0)
Format : MPEG Video
Format version : Version 2
Format profile : [email protected]
Format settings : CustomMatrix / BVOP
Format settings, BVOP : Yes
Format settings, Matrix : Custom
Format settings, GOP : M=3, N=15
Format settings, picture structure : Frame
Duration : 28 min 12 s
Bit rate mode : Variable
Bit rate : 4 782 kb/s
Maximum bit rate : 5 500 kb/s
Width : 720 pixels
Height : 480 pixels
Display aspect ratio : 4:3
Frame rate : 29.970 (30000/1001) FPS
Standard : NTSC
Color space : YUV
Chroma subsampling : 4:2:0
Bit depth : 8 bits
Scan type : Interlaced
Scan order : Top Field First
Compression mode : Lossy
Bits/(Pixel*Frame) : 0.462
Time code of first frame : 01:54:03:12
Time code source : Group of pictures header
GOP, Open/Closed : Closed
Stream size : 965 MiB (94%)
Audio
ID : 189 (0xBD)-128 (0x80)
Format : AC-3
Format/Info : Audio Coding 3
Commercial name : Dolby Digital
Muxing mode : DVD-Video
Duration : 28 min 12 s
Bit rate mode : Constant
Bit rate : 192 kb/s
Channel(s) : 2 channels
Channel layout : L R
Sampling rate : 48.0 kHz
Frame rate : 31.250 FPS (1536 SPF)
Bit depth : 16 bits
Compression mode : Lossy
Delay relative to video : -347 ms
Stream size : 38.7 MiB (4%)
Service kind : Complete Main
Menu
General
Complete name : /media/erzsebet/ASSAULT_THT_ASS7/VIDEO_TS/VTS_01_6.VOB
Format : MPEG-PS
File size : 1 024 MiB
Duration : 28 min 12 s
Overall bit rate mode : Variable
Overall bit rate : 5 074 kb/s
Video
ID : 224 (0xE0)
Format : MPEG Video
Format version : Version 2
Format profile : [email protected]
Format settings : CustomMatrix / BVOP
Format settings, BVOP : Yes
Format settings, Matrix : Custom
Format settings, GOP : M=3, N=15
Format settings, picture structure : Frame
Duration : 28 min 12 s
Bit rate mode : Variable
Bit rate : 4 781 kb/s
Maximum bit rate : 5 500 kb/s
Width : 720 pixels
Height : 480 pixels
Display aspect ratio : 4:3
Frame rate : 29.970 (30000/1001) FPS
Standard : NTSC
Color space : YUV
Chroma subsampling : 4:2:0
Bit depth : 8 bits
Scan type : Interlaced
Scan order : Top Field First
Compression mode : Lossy
Bits/(Pixel*Frame) : 0.462
Time code of first frame : 02:22:14:12
Time code source : Group of pictures header
GOP, Open/Closed : Closed
Stream size : 965 MiB (94%)
Audio
ID : 189 (0xBD)-128 (0x80)
Format : AC-3
Format/Info : Audio Coding 3
Commercial name : Dolby Digital
Muxing mode : DVD-Video
Duration : 28 min 12 s
Bit rate mode : Constant
Bit rate : 192 kb/s
Channel(s) : 2 channels
Channel layout : L R
Sampling rate : 48.0 kHz
Frame rate : 31.250 FPS (1536 SPF)
Bit depth : 16 bits
Compression mode : Lossy
Delay relative to video : -525 ms
Stream size : 38.7 MiB (4%)
Service kind : Complete Main
Menu
General
Complete name : /media/erzsebet/ASSAULT_THT_ASS7/VIDEO_TS/VTS_01_7.VOB
Format : MPEG-PS
File size : 424 MiB
Duration : 12 min 3 s
Overall bit rate mode : Variable
Overall bit rate : 4 913 kb/s
Video
ID : 224 (0xE0)
Format : MPEG Video
Format version : Version 2
Format profile : [email protected]
Format settings : CustomMatrix / BVOP
Format settings, BVOP : Yes
Format settings, Matrix : Custom
Format settings, GOP : M=3, N=15
Format settings, picture structure : Frame
Duration : 12 min 2 s
Bit rate mode : Variable
Bit rate : 4 624 kb/s
Maximum bit rate : 5 500 kb/s
Width : 720 pixels
Height : 480 pixels
Display aspect ratio : 4:3
Frame rate : 29.970 (30000/1001) FPS
Standard : NTSC
Color space : YUV
Chroma subsampling : 4:2:0
Bit depth : 8 bits
Scan type : Interlaced
Scan order : Top Field First
Compression mode : Lossy
Bits/(Pixel*Frame) : 0.446
Time code of first frame : 02:50:25:12
Time code source : Group of pictures header
GOP, Open/Closed : Closed
Stream size : 398 MiB (94%)
Audio
ID : 189 (0xBD)-128 (0x80)
Format : AC-3
Format/Info : Audio Coding 3
Commercial name : Dolby Digital
Muxing mode : DVD-Video
Duration : 12 min 3 s
Bit rate mode : Constant
Bit rate : 192 kb/s
Channel(s) : 2 channels
Channel layout : L R
Sampling rate : 48.0 kHz
Frame rate : 31.250 FPS (1536 SPF)
Bit depth : 16 bits
Compression mode : Lossy
Delay relative to video : -544 ms
Stream size : 16.6 MiB (4%)
Service kind : Complete Main
Menu
General
Complete name : /media/erzsebet/ASSAULT_THT_ASS7/VIDEO_TS/VTS_02_0.BUP
Format : DVD Video
Format profile : Program
File size : 18.0 KiB
Duration : 1 s 66 ms
Overall bit rate mode : Variable
Overall bit rate : 138 kb/s
FileExtension_Invalid : ifo
Video
ID : 224 (0xE0)
Format : MPEG Video
Format version : Version 2
Duration : 1 s 68 ms
Bit rate mode : Variable
Bit rate : 126 kb/s
Width : 720 pixels
Height : 480 pixels
Display aspect ratio : 4:3
Frame rate : 29.970 (29970/1000) FPS
Standard : NTSC
Compression mode : Lossy
Bits/(Pixel*Frame) : 0.012
Stream size : 16.4 KiB (91%)
Menu
Duration : 1 s 66 ms
00:00:00.000 : Chapter 1
00:00:00.500 : Chapter 2
General
Complete name : /media/erzsebet/ASSAULT_THT_ASS7/VIDEO_TS/VTS_02_0.IFO
Format : DVD Video
Format profile : Program
File size : 18.0 KiB
Duration : 1 s 66 ms
Overall bit rate mode : Variable
Overall bit rate : 138 kb/s
Video
ID : 224 (0xE0)
Format : MPEG Video
Format version : Version 2
Duration : 1 s 68 ms
Bit rate mode : Variable
Bit rate : 126 kb/s
Width : 720 pixels
Height : 480 pixels
Display aspect ratio : 4:3
Frame rate : 29.970 (29970/1000) FPS
Standard : NTSC
Compression mode : Lossy
Bits/(Pixel*Frame) : 0.012
Stream size : 16.4 KiB (91%)
Menu
Duration : 1 s 66 ms
00:00:00.000 : Chapter 1
00:00:00.500 : Chapter 2
General
Complete name : /media/erzsebet/ASSAULT_THT_ASS7/VIDEO_TS/VTS_02_0.VOB
Format : MPEG-PS
File size : 114 KiB
Duration : 467 ms
Overall bit rate : 2 000 kb/s
Video
ID : 224 (0xE0)
Format : MPEG Video
Format version : Version 2
Format profile : [email protected]
Format settings : CustomMatrix / BVOP
Format settings, BVOP : Yes
Format settings, Matrix : Custom
Format settings, picture structure : Frame
Duration : 467 ms
Bit rate mode : Constant
Maximum bit rate : 2 000 kb/s
Width : 720 pixels
Height : 480 pixels
Display aspect ratio : 4:3
Frame rate : 29.970 (30000/1001) FPS
Standard : NTSC
Color space : YUV
Chroma subsampling : 4:2:0
Bit depth : 8 bits
Scan type : Interlaced
Scan order : Top Field First
Compression mode : Lossy
Time code of first frame : 00:00:00:01
Time code source : Group of pictures header
Text
ID : 189 (0xBD)-32 (0x20)
Format : RLE
Format/Info : Run-length encoding
Muxing mode : DVD-Video
Menu
General
Complete name : /media/erzsebet/ASSAULT_THT_ASS7/VIDEO_TS/VTS_02_1.VOB
Format : MPEG-PS
File size : 42.0 KiB
Duration : 1 s 34 ms
Overall bit rate mode : Variable
Overall bit rate : 333 kb/s
Video
ID : 224 (0xE0)
Format : MPEG Video
Format version : Version 2
Format profile : [email protected]
Format settings : CustomMatrix / BVOP
Format settings, BVOP : Yes
Format settings, Matrix : Custom
Format settings, picture structure : Frame
Duration : 1 s 34 ms
Bit rate mode : Variable
Bit rate : 326 kb/s
Maximum bit rate : 9 800 kb/s
Width : 720 pixels
Height : 480 pixels
Display aspect ratio : 4:3
Frame rate : 29.970 (30000/1001) FPS
Standard : NTSC
Color space : YUV
Chroma subsampling : 4:2:0
Bit depth : 8 bits
Scan type : Interlaced
Scan order : Top Field First
Compression mode : Lossy
Bits/(Pixel*Frame) : 0.031
Time code of first frame : 01:00:00:00
Time code source : Group of pictures header
Stream size : 41.2 KiB (98%)
Menu
General
Complete name : /media/erzsebet/ASSAULT_THT_ASS7/VIDEO_TS/VTS_03_0.BUP
Format : DVD Video
Format profile : Program
File size : 18.0 KiB
Duration : 1 s 66 ms
Overall bit rate mode : Variable
Overall bit rate : 138 kb/s
FileExtension_Invalid : ifo
Video
ID : 224 (0xE0)
Format : MPEG Video
Format version : Version 2
Duration : 1 s 68 ms
Bit rate mode : Variable
Bit rate : 126 kb/s
Width : 720 pixels
Height : 480 pixels
Display aspect ratio : 4:3
Frame rate : 29.970 (29970/1000) FPS
Standard : NTSC
Compression mode : Lossy
Bits/(Pixel*Frame) : 0.012
Stream size : 16.4 KiB (91%)
Menu
Duration : 1 s 66 ms
00:00:00.000 : Chapter 1
General
Complete name : /media/erzsebet/ASSAULT_THT_ASS7/VIDEO_TS/VTS_03_0.IFO
Format : DVD Video
Format profile : Program
File size : 18.0 KiB
Duration : 1 s 66 ms
Overall bit rate mode : Variable
Overall bit rate : 138 kb/s
Video
ID : 224 (0xE0)
Format : MPEG Video
Format version : Version 2
Duration : 1 s 68 ms
Bit rate mode : Variable
Bit rate : 126 kb/s
Width : 720 pixels
Height : 480 pixels
Display aspect ratio : 4:3
Frame rate : 29.970 (29970/1000) FPS
Standard : NTSC
Compression mode : Lossy
Bits/(Pixel*Frame) : 0.012
Stream size : 16.4 KiB (91%)
Menu
Duration : 1 s 66 ms
00:00:00.000 : Chapter 1
General
Complete name : /media/erzsebet/ASSAULT_THT_ASS7/VIDEO_TS/VTS_03_0.VOB
Format : MPEG-PS
File size : 114 KiB
Duration : 467 ms
Overall bit rate : 2 000 kb/s
Video
ID : 224 (0xE0)
Format : MPEG Video
Format version : Version 2
Format profile : [email protected]
Format settings : CustomMatrix / BVOP
Format settings, BVOP : Yes
Format settings, Matrix : Custom
Format settings, picture structure : Frame
Duration : 467 ms
Bit rate mode : Constant
Maximum bit rate : 2 000 kb/s
Width : 720 pixels
Height : 480 pixels
Display aspect ratio : 4:3
Frame rate : 29.970 (30000/1001) FPS
Standard : NTSC
Color space : YUV
Chroma subsampling : 4:2:0
Bit depth : 8 bits
Scan type : Interlaced
Scan order : Top Field First
Compression mode : Lossy
Time code of first frame : 00:00:00:01
Time code source : Group of pictures header
Text
ID : 189 (0xBD)-32 (0x20)
Format : RLE
Format/Info : Run-length encoding
Muxing mode : DVD-Video
Menu
General
Complete name : /media/erzsebet/ASSAULT_THT_ASS7/VIDEO_TS/VTS_03_1.VOB
Format : MPEG-PS
File size : 42.0 KiB
Duration : 1 s 34 ms
Overall bit rate mode : Variable
Overall bit rate : 333 kb/s
Video
ID : 224 (0xE0)
Format : MPEG Video
Format version : Version 2
Format profile : [email protected]
Format settings : CustomMatrix / BVOP
Format settings, BVOP : Yes
Format settings, Matrix : Custom
Format settings, picture structure : Frame
Duration : 1 s 34 ms
Bit rate mode : Variable
Bit rate : 326 kb/s
Maximum bit rate : 9 800 kb/s
Width : 720 pixels
Height : 480 pixels
Display aspect ratio : 4:3
Frame rate : 29.970 (30000/1001) FPS
Standard : NTSC
Color space : YUV
Chroma subsampling : 4:2:0
Bit depth : 8 bits
Scan type : Interlaced
Scan order : Top Field First
Compression mode : Lossy
Bits/(Pixel*Frame) : 0.031
Time code of first frame : 01:00:00:00
Time code source : Group of pictures header
Stream size : 41.2 KiB (98%)
Menu
General
Complete name : /media/erzsebet/ASSAULT_THT_ASS7/VIDEO_TS/VTS_04_0.BUP
Format : DVD Video
Format profile : Program
File size : 18.0 KiB
Duration : 1 min 1 s
Overall bit rate mode : Variable
Overall bit rate : 2 416 b/s
FileExtension_Invalid : ifo
Video
ID : 224 (0xE0)
Format : MPEG Video
Format version : Version 2
Duration : 1 min 1 s
Bit rate mode : Variable
Width : 720 pixels
Height : 480 pixels
Display aspect ratio : 4:3
Frame rate : 29.970 (29970/1000) FPS
Standard : NTSC
Compression mode : Lossy
Menu
Duration : 1 min 1 s
00:00:00.000 : Chapter 1
00:01:00.500 : Chapter 2
General
Complete name : /media/erzsebet/ASSAULT_THT_ASS7/VIDEO_TS/VTS_04_0.IFO
Format : DVD Video
Format profile : Program
File size : 18.0 KiB
Duration : 1 min 1 s
Overall bit rate mode : Variable
Overall bit rate : 2 416 b/s
Video
ID : 224 (0xE0)
Format : MPEG Video
Format version : Version 2
Duration : 1 min 1 s
Bit rate mode : Variable
Width : 720 pixels
Height : 480 pixels
Display aspect ratio : 4:3
Frame rate : 29.970 (29970/1000) FPS
Standard : NTSC
Compression mode : Lossy
Menu
Duration : 1 min 1 s
00:00:00.000 : Chapter 1
00:01:00.500 : Chapter 2
General
Complete name : /media/erzsebet/ASSAULT_THT_ASS7/VIDEO_TS/VTS_04_0.VOB
Format : MPEG-PS
File size : 114 KiB
Duration : 467 ms
Overall bit rate : 2 000 kb/s
Video
ID : 224 (0xE0)
Format : MPEG Video
Format version : Version 2
Format profile : [email protected]
Format settings : CustomMatrix / BVOP
Format settings, BVOP : Yes
Format settings, Matrix : Custom
Format settings, picture structure : Frame
Duration : 467 ms
Bit rate mode : Constant
Maximum bit rate : 2 000 kb/s
Width : 720 pixels
Height : 480 pixels
Display aspect ratio : 4:3
Frame rate : 29.970 (30000/1001) FPS
Standard : NTSC
Color space : YUV
Chroma subsampling : 4:2:0
Bit depth : 8 bits
Scan type : Interlaced
Scan order : Top Field First
Compression mode : Lossy
Time code of first frame : 00:00:00:01
Time code source : Group of pictures header
Text
ID : 189 (0xBD)-32 (0x20)
Format : RLE
Format/Info : Run-length encoding
Muxing mode : DVD-Video
Menu
General
Complete name : /media/erzsebet/ASSAULT_THT_ASS7/VIDEO_TS/VTS_04_1.VOB
Format : MPEG-PS
File size : 19.5 MiB
Duration : 1 min 1 s
Overall bit rate mode : Variable
Overall bit rate : 2 679 kb/s
Video
ID : 224 (0xE0)
Format : MPEG Video
Format version : Version 2
Format profile : [email protected]
Format settings : CustomMatrix / BVOP
Format settings, BVOP : Yes
Format settings, Matrix : Custom
Format settings, GOP : M=3, N=15
Format settings, picture structure : Frame
Duration : 1 min 1 s
Bit rate mode : Variable
Bit rate : 2 626 kb/s
Maximum bit rate : 9 800 kb/s
Width : 720 pixels
Height : 480 pixels
Display aspect ratio : 4:3
Frame rate : 29.970 (30000/1001) FPS
Standard : NTSC
Color space : YUV
Chroma subsampling : 4:2:0
Bit depth : 8 bits
Scan type : Interlaced
Scan order : Top Field First
Compression mode : Lossy
Bits/(Pixel*Frame) : 0.254
Time code of first frame : 01:00:00:00
Time code source : Group of pictures header
GOP, Open/Closed : Open
GOP, Open/Closed of first frame : Closed
Stream size : 19.1 MiB (98%)
Menu
General
Complete name : /media/erzsebet/ASSAULT_THT_ASS7/VIDEO_TS/VTS_05_0.BUP
Format : DVD Video
Format profile : Program
File size : 18.0 KiB
Duration : 16 s 866 ms
Overall bit rate mode : Variable
Overall bit rate : 8 743 b/s
FileExtension_Invalid : ifo
Video
ID : 224 (0xE0)
Format : MPEG Video
Format version : Version 2
Duration : 16 s 850 ms
Bit rate mode : Variable
Width : 720 pixels
Height : 480 pixels
Display aspect ratio : 4:3
Frame rate : 29.970 (29970/1000) FPS
Standard : NTSC
Compression mode : Lossy
Audio
ID : 128 (0x80)
Format : AC-3
Format/Info : Audio Coding 3
Duration : 16 s 866 ms
Channel(s) : 2 channels
Sampling rate : 48.0 kHz
Compression mode : Lossy
Language : English
Menu
Duration : 16 s 866 ms
00:00:00.000 : Chapter 1
00:00:16.333 : Chapter 2
List (Audio) : 0
General
Complete name : /media/erzsebet/ASSAULT_THT_ASS7/VIDEO_TS/VTS_05_0.IFO
Format : DVD Video
Format profile : Program
File size : 18.0 KiB
Duration : 16 s 866 ms
Overall bit rate mode : Variable
Overall bit rate : 8 743 b/s
Video
ID : 224 (0xE0)
Format : MPEG Video
Format version : Version 2
Duration : 16 s 850 ms
Bit rate mode : Variable
Width : 720 pixels
Height : 480 pixels
Display aspect ratio : 4:3
Frame rate : 29.970 (29970/1000) FPS
Standard : NTSC
Compression mode : Lossy
Audio
ID : 128 (0x80)
Format : AC-3
Format/Info : Audio Coding 3
Duration : 16 s 866 ms
Channel(s) : 2 channels
Sampling rate : 48.0 kHz
Compression mode : Lossy
Language : English
Menu
Duration : 16 s 866 ms
00:00:00.000 : Chapter 1
00:00:16.333 : Chapter 2
List (Audio) : 0
General
Complete name : /media/erzsebet/ASSAULT_THT_ASS7/VIDEO_TS/VTS_05_0.VOB
Format : MPEG-PS
File size : 114 KiB
Duration : 467 ms
Overall bit rate : 2 000 kb/s
Video
ID : 224 (0xE0)
Format : MPEG Video
Format version : Version 2
Format profile : [email protected]
Format settings : CustomMatrix / BVOP
Format settings, BVOP : Yes
Format settings, Matrix : Custom
Format settings, picture structure : Frame
Duration : 467 ms
Bit rate mode : Constant
Maximum bit rate : 2 000 kb/s
Width : 720 pixels
Height : 480 pixels
Display aspect ratio : 4:3
Frame rate : 29.970 (30000/1001) FPS
Standard : NTSC
Color space : YUV
Chroma subsampling : 4:2:0
Bit depth : 8 bits
Scan type : Interlaced
Scan order : Top Field First
Compression mode : Lossy
Time code of first frame : 00:00:00:01
Time code source : Group of pictures header
Text
ID : 189 (0xBD)-32 (0x20)
Format : RLE
Format/Info : Run-length encoding
Muxing mode : DVD-Video
Menu
General
Complete name : /media/erzsebet/ASSAULT_THT_ASS7/VIDEO_TS/VTS_05_1.VOB
Format : MPEG-PS
File size : 10.3 MiB
Duration : 16 s 884 ms
Overall bit rate mode : Variable
Overall bit rate : 5 129 kb/s
Video
ID : 224 (0xE0)
Format : MPEG Video
Format version : Version 2
Format profile : [email protected]
Format settings : CustomMatrix / BVOP
Format settings, BVOP : Yes
Format settings, Matrix : Custom
Format settings, GOP : M=3, N=15
Format settings, picture structure : Frame
Duration : 16 s 884 ms
Bit rate mode : Variable
Bit rate : 4 835 kb/s
Maximum bit rate : 5 500 kb/s
Width : 720 pixels
Height : 480 pixels
Display aspect ratio : 4:3
Frame rate : 29.970 (30000/1001) FPS
Standard : NTSC
Color space : YUV
Chroma subsampling : 4:2:0
Bit depth : 8 bits
Scan type : Interlaced
Scan order : Top Field First
Compression mode : Lossy
Bits/(Pixel*Frame) : 0.467
Time code of first frame : 00:01:15:05
Time code source : Group of pictures header
GOP, Open/Closed : Closed
Stream size : 9.73 MiB (94%)
Audio
ID : 189 (0xBD)-128 (0x80)
Format : AC-3
Format/Info : Audio Coding 3
Commercial name : Dolby Digital
Muxing mode : DVD-Video
Duration : 16 s 864 ms
Bit rate mode : Constant
Bit rate : 192 kb/s
Channel(s) : 2 channels
Channel layout : L R
Sampling rate : 48.0 kHz
Frame rate : 31.250 FPS (1536 SPF)
Bit depth : 16 bits
Compression mode : Lossy
Stream size : 395 KiB (4%)
Service kind : Complete Main
Menu
General
Complete name : /media/erzsebet/ASSAULT_THT_ASS7/VIDEO_TS/VTS_06_0.BUP
Format : DVD Video
Format profile : Program
File size : 20.0 KiB
Duration : 6 min 45 s
Overall bit rate mode : Variable
Overall bit rate : 404 b/s
FileExtension_Invalid : ifo
Video
ID : 224 (0xE0)
Format : MPEG Video
Format version : Version 2
Duration : 6 min 45 s
Bit rate mode : Variable
Width : 720 pixels
Height : 480 pixels
Display aspect ratio : 4:3
Frame rate : 29.970 (29970/1000) FPS
Standard : NTSC
Compression mode : Lossy
Audio
ID : 128 (0x80)
Format : AC-3
Format/Info : Audio Coding 3
Duration : 6 min 45 s
Channel(s) : 2 channels
Sampling rate : 48.0 kHz
Compression mode : Lossy
Language : English
Menu
Duration : 6 min 45 s
00:00:00.000 : Chapter 1
00:06:44.600 : Chapter 2
List (Audio) : 0
General
Complete name : /media/erzsebet/ASSAULT_THT_ASS7/VIDEO_TS/VTS_06_0.IFO
Format : DVD Video
Format profile : Program
File size : 20.0 KiB
Duration : 6 min 45 s
Overall bit rate mode : Variable
Overall bit rate : 404 b/s
Video
ID : 224 (0xE0)
Format : MPEG Video
Format version : Version 2
Duration : 6 min 45 s
Bit rate mode : Variable
Width : 720 pixels
Height : 480 pixels
Display aspect ratio : 4:3
Frame rate : 29.970 (29970/1000) FPS
Standard : NTSC
Compression mode : Lossy
Audio
ID : 128 (0x80)
Format : AC-3
Format/Info : Audio Coding 3
Duration : 6 min 45 s
Channel(s) : 2 channels
Sampling rate : 48.0 kHz
Compression mode : Lossy
Language : English
Menu
Duration : 6 min 45 s
00:00:00.000 : Chapter 1
00:06:44.600 : Chapter 2
List (Audio) : 0
General
Complete name : /media/erzsebet/ASSAULT_THT_ASS7/VIDEO_TS/VTS_06_0.VOB
Format : MPEG-PS
File size : 114 KiB
Duration : 467 ms
Overall bit rate : 2 000 kb/s
Video
ID : 224 (0xE0)
Format : MPEG Video
Format version : Version 2
Format profile : [email protected]
Format settings : CustomMatrix / BVOP
Format settings, BVOP : Yes
Format settings, Matrix : Custom
Format settings, picture structure : Frame
Duration : 467 ms
Bit rate mode : Constant
Maximum bit rate : 2 000 kb/s
Width : 720 pixels
Height : 480 pixels
Display aspect ratio : 4:3
Frame rate : 29.970 (30000/1001) FPS
Standard : NTSC
Color space : YUV
Chroma subsampling : 4:2:0
Bit depth : 8 bits
Scan type : Interlaced
Scan order : Top Field First
Compression mode : Lossy
Time code of first frame : 00:00:00:01
Time code source : Group of pictures header
Text
ID : 189 (0xBD)-32 (0x20)
Format : RLE
Format/Info : Run-length encoding
Muxing mode : DVD-Video
Menu
General
Complete name : /media/erzsebet/ASSAULT_THT_ASS7/VIDEO_TS/VTS_06_1.VOB
Format : MPEG-PS
File size : 158 MiB
Duration : 6 min 45 s
Overall bit rate mode : Variable
Overall bit rate : 3 277 kb/s
Video
ID : 224 (0xE0)
Format : MPEG Video
Format version : Version 2
Format profile : [email protected]
Format settings : CustomMatrix / BVOP
Format settings, BVOP : Yes
Format settings, Matrix : Custom
Format settings, GOP : Variable
Format settings, picture structure : Frame
Duration : 6 min 45 s
Bit rate mode : Variable
Bit rate : 3 020 kb/s
Maximum bit rate : 9 800 kb/s
Width : 720 pixels
Height : 480 pixels
Display aspect ratio : 4:3
Frame rate : 29.970 (30000/1001) FPS
Standard : NTSC
Color space : YUV
Chroma subsampling : 4:2:0
Bit depth : 8 bits
Scan type : Interlaced
Scan order : Top Field First
Compression mode : Lossy
Bits/(Pixel*Frame) : 0.292
Time code of first frame : 01:00:00:00
Time code source : Group of pictures header
GOP, Open/Closed : Open
GOP, Open/Closed of first frame : Closed
Stream size : 146 MiB (92%)
Audio
ID : 189 (0xBD)-128 (0x80)
Format : AC-3
Format/Info : Audio Coding 3
Commercial name : Dolby Digital
Muxing mode : DVD-Video
Duration : 6 min 45 s
Bit rate mode : Constant
Bit rate : 192 kb/s
Channel(s) : 2 channels
Channel layout : L R
Sampling rate : 48.0 kHz
Frame rate : 31.250 FPS (1536 SPF)
Bit depth : 16 bits
Compression mode : Lossy
Stream size : 9.28 MiB (6%)
Service kind : Complete Main
Menu
General
Complete name : /media/erzsebet/ASSAULT_THT_ASS7/VIDEO_TS/VTS_07_0.BUP
Format : DVD Video
Format profile : Program
File size : 24.0 KiB
Duration : 12 min 1 s
Overall bit rate mode : Variable
Overall bit rate : 273 b/s
FileExtension_Invalid : ifo
Video
ID : 224 (0xE0)
Format : MPEG Video
Format version : Version 2
Duration : 12 min 1 s
Bit rate mode : Variable
Width : 720 pixels
Height : 480 pixels
Display aspect ratio : 4:3
Frame rate : 29.970 (29970/1000) FPS
Standard : NTSC
Compression mode : Lossy
Audio
ID : 128 (0x80)
Format : AC-3
Format/Info : Audio Coding 3
Duration : 12 min 1 s
Channel(s) : 2 channels
Sampling rate : 48.0 kHz
Compression mode : Lossy
Language : English
Menu
Duration : 12 min 1 s
00:00:00.000 : Chapter 1
00:12:00.500 : Chapter 2
List (Audio) : 0
General
Complete name : /media/erzsebet/ASSAULT_THT_ASS7/VIDEO_TS/VTS_07_0.IFO
Format : DVD Video
Format profile : Program
File size : 24.0 KiB
Duration : 12 min 1 s
Overall bit rate mode : Variable
Overall bit rate : 273 b/s
Video
ID : 224 (0xE0)
Format : MPEG Video
Format version : Version 2
Duration : 12 min 1 s
Bit rate mode : Variable
Width : 720 pixels
Height : 480 pixels
Display aspect ratio : 4:3
Frame rate : 29.970 (29970/1000) FPS
Standard : NTSC
Compression mode : Lossy
Audio
ID : 128 (0x80)
Format : AC-3
Format/Info : Audio Coding 3
Duration : 12 min 1 s
Channel(s) : 2 channels
Sampling rate : 48.0 kHz
Compression mode : Lossy
Language : English
Menu
Duration : 12 min 1 s
00:00:00.000 : Chapter 1
00:12:00.500 : Chapter 2
List (Audio) : 0
General
Complete name : /media/erzsebet/ASSAULT_THT_ASS7/VIDEO_TS/VTS_07_0.VOB
Format : MPEG-PS
File size : 114 KiB
Duration : 467 ms
Overall bit rate : 2 000 kb/s
Video
ID : 224 (0xE0)
Format : MPEG Video
Format version : Version 2
Format profile : [email protected]
Format settings : CustomMatrix / BVOP
Format settings, BVOP : Yes
Format settings, Matrix : Custom
Format settings, picture structure : Frame
Duration : 467 ms
Bit rate mode : Constant
Maximum bit rate : 2 000 kb/s
Width : 720 pixels
Height : 480 pixels
Display aspect ratio : 4:3
Frame rate : 29.970 (30000/1001) FPS
Standard : NTSC
Color space : YUV
Chroma subsampling : 4:2:0
Bit depth : 8 bits
Scan type : Interlaced
Scan order : Top Field First
Compression mode : Lossy
Time code of first frame : 00:00:00:01
Time code source : Group of pictures header
Text
ID : 189 (0xBD)-32 (0x20)
Format : RLE
Format/Info : Run-length encoding
Muxing mode : DVD-Video
Menu
General
Complete name : /media/erzsebet/ASSAULT_THT_ASS7/VIDEO_TS/VTS_07_1.VOB
Format : MPEG-PS
File size : 386 MiB
Duration : 12 min 1 s
Overall bit rate mode : Variable
Overall bit rate : 4 488 kb/s
Video
ID : 224 (0xE0)
Format : MPEG Video
Format version : Version 2
Format profile : [email protected]
Format settings : CustomMatrix / BVOP
Format settings, BVOP : Yes
Format settings, Matrix : Custom
Format settings, GOP : M=3, N=15
Format settings, picture structure : Frame
Duration : 12 min 1 s
Bit rate mode : Variable
Bit rate : 4 207 kb/s
Maximum bit rate : 5 000 kb/s
Width : 720 pixels
Height : 480 pixels
Display aspect ratio : 4:3
Frame rate : 29.970 (30000/1001) FPS
Standard : NTSC
Color space : YUV
Chroma subsampling : 4:2:0
Bit depth : 8 bits
Scan type : Interlaced
Scan order : Top Field First
Compression mode : Lossy
Bits/(Pixel*Frame) : 0.406
Time code of first frame : 00:10:03:18
Time code source : Group of pictures header
GOP, Open/Closed : Closed
Stream size : 362 MiB (94%)
Audio
ID : 189 (0xBD)-128 (0x80)
Format : AC-3
Format/Info : Audio Coding 3
Commercial name : Dolby Digital
Muxing mode : DVD-Video
Duration : 12 min 1 s
Bit rate mode : Constant
Bit rate : 192 kb/s
Channel(s) : 2 channels
Channel layout : L R
Sampling rate : 48.0 kHz
Frame rate : 31.250 FPS (1536 SPF)
Bit depth : 16 bits
Compression mode : Lossy
Stream size : 16.5 MiB (4%)
Service kind : Complete Main
Menu
General
Complete name : /media/erzsebet/ASSAULT_THT_ASS7/VIDEO_TS/VTS_08_0.BUP
Format : DVD Video
Format profile : Program
File size : 24.0 KiB
Duration : 9 min 34 s
Overall bit rate mode : Variable
Overall bit rate : 343 b/s
FileExtension_Invalid : ifo
Video
ID : 224 (0xE0)
Format : MPEG Video
Format version : Version 2
Duration : 9 min 34 s
Bit rate mode : Variable
Width : 720 pixels
Height : 480 pixels
Display aspect ratio : 4:3
Frame rate : 29.970 (29970/1000) FPS
Standard : NTSC
Compression mode : Lossy
Audio
ID : 128 (0x80)
Format : AC-3
Format/Info : Audio Coding 3
Duration : 9 min 34 s
Channel(s) : 2 channels
Sampling rate : 48.0 kHz
Compression mode : Lossy
Language : English
Menu
Duration : 9 min 34 s
00:00:00.000 : Chapter 1
00:09:33.500 : Chapter 2
List (Audio) : 0
General
Complete name : /media/erzsebet/ASSAULT_THT_ASS7/VIDEO_TS/VTS_08_0.IFO
Format : DVD Video
Format profile : Program
File size : 24.0 KiB
Duration : 9 min 34 s
Overall bit rate mode : Variable
Overall bit rate : 343 b/s
Video
ID : 224 (0xE0)
Format : MPEG Video
Format version : Version 2
Duration : 9 min 34 s
Bit rate mode : Variable
Width : 720 pixels
Height : 480 pixels
Display aspect ratio : 4:3
Frame rate : 29.970 (29970/1000) FPS
Standard : NTSC
Compression mode : Lossy
Audio
ID : 128 (0x80)
Format : AC-3
Format/Info : Audio Coding 3
Duration : 9 min 34 s
Channel(s) : 2 channels
Sampling rate : 48.0 kHz
Compression mode : Lossy
Language : English
Menu
Duration : 9 min 34 s
00:00:00.000 : Chapter 1
00:09:33.500 : Chapter 2
List (Audio) : 0
General
Complete name : /media/erzsebet/ASSAULT_THT_ASS7/VIDEO_TS/VTS_08_0.VOB
Format : MPEG-PS
File size : 114 KiB
Duration : 467 ms
Overall bit rate : 2 000 kb/s
Video
ID : 224 (0xE0)
Format : MPEG Video
Format version : Version 2
Format profile : [email protected]
Format settings : CustomMatrix / BVOP
Format settings, BVOP : Yes
Format settings, Matrix : Custom
Format settings, picture structure : Frame
Duration : 467 ms
Bit rate mode : Constant
Maximum bit rate : 2 000 kb/s
Width : 720 pixels
Height : 480 pixels
Display aspect ratio : 4:3
Frame rate : 29.970 (30000/1001) FPS
Standard : NTSC
Color space : YUV
Chroma subsampling : 4:2:0
Bit depth : 8 bits
Scan type : Interlaced
Scan order : Top Field First
Compression mode : Lossy
Time code of first frame : 00:00:00:01
Time code source : Group of pictures header
Text
ID : 189 (0xBD)-32 (0x20)
Format : RLE
Format/Info : Run-length encoding
Muxing mode : DVD-Video
Menu
General
Complete name : /media/erzsebet/ASSAULT_THT_ASS7/VIDEO_TS/VTS_08_1.VOB
Format : MPEG-PS
File size : 340 MiB
Duration : 9 min 34 s
Overall bit rate mode : Variable
Overall bit rate : 4 965 kb/s
Video
ID : 224 (0xE0)
Format : MPEG Video
Format version : Version 2
Format profile : [email protected]
Format settings : CustomMatrix / BVOP
Format settings, BVOP : Yes
Format settings, Matrix : Custom
Format settings, GOP : M=3, N=15
Format settings, picture structure : Frame
Duration : 9 min 34 s
Bit rate mode : Variable
Bit rate : 4 674 kb/s
Maximum bit rate : 5 500 kb/s
Width : 720 pixels
Height : 480 pixels
Display aspect ratio : 4:3
Frame rate : 29.970 (30000/1001) FPS
Standard : NTSC
Color space : YUV
Chroma subsampling : 4:2:0
Bit depth : 8 bits
Scan type : Interlaced
Scan order : Top Field First
Compression mode : Lossy
Bits/(Pixel*Frame) : 0.451
Time code of first frame : 00:00:19:14
Time code source : Group of pictures header
GOP, Open/Closed : Closed
Stream size : 320 MiB (94%)
Audio
ID : 189 (0xBD)-128 (0x80)
Format : AC-3
Format/Info : Audio Coding 3
Commercial name : Dolby Digital
Muxing mode : DVD-Video
Duration : 9 min 34 s
Bit rate mode : Constant
Bit rate : 192 kb/s
Channel(s) : 2 channels
Channel layout : L R
Sampling rate : 48.0 kHz
Frame rate : 31.250 FPS (1536 SPF)
Bit depth : 16 bits
Compression mode : Lossy
Stream size : 13.2 MiB (4%)
Service kind : Complete Main
Menu

Screenshots

[erzsebet.org].t2924606.torrent
Торрент: Зарегистрирован [ 2020-06-30 11:53 ]

Скачать .torrent

Скачать

10 KB

Статус: проверено
Скачан: 0 раз
Размер: 7.34 GB
Поблагодарили: 0  Спасибо
terms.php
[Профиль]  [ЛС] 
Показать сообщения:    
Ответить на тему

Текущее время: 12-Июл 03:04

Часовой пояс: UTC + 3



Вы не можете начинать темы
Вы не можете отвечать на сообщения
Вы не можете редактировать свои сообщения
Вы не можете удалять свои сообщения
Вы не можете голосовать в опросах
Вы не можете прикреплять файлы к сообщениям
Вы можете скачивать файлы