Assault That Ass 10 (Mark Wood / Red Light District) [2006, Anal, DP, DAP, ATM, Group, Threesome, Gonzo, DVD9] Rachel Luv, Chelsie Rae, Lorelei Lee, Ricki White, Brandi Edwards

Ответить на тему
Статистика раздачи
Размер:  7.28 GB   |    Зарегистрирован:  10 дней   |    Скачан:  0 раз
Сидов:  2   Личеров:  1  
 
 
Автор Сообщение

erzsebet ®

Стаж: 18 лет

Сообщений: 470810

Откуда: Венгрия

Создавать темы 30-Июн-2020 12:15  |  Сменить автора

[Цитировать] 

Assault That Ass 10
Штурм анального отверстия 10
Год релиза: 2006 г.
Страна: USA
Жанр: Anal, DP, DAP, ATM, Group, Threesome, Gonzo
Продолжительность: 02:42:00
Режиссер: Mark Wood
Студия: Red Light District
В ролях:
Rachel Luv, Chelsie Rae, Lorelei Lee, Ricki White, Brandi Edwards

Описание:
Check out another batch of fine young girls with fat round asses.
These are perfect ingredients for some very serious butt fucking.
DP's, gaping rectums, gooey facials, and all the things you love from the Red Light District!
Качество видео: DVD-9
Формат видео: DVD-Video

MediaInfo

General
Complete name : /media/erzsebet/ASSULT_THAT_ASS_10/VIDEO_TS/VIDEO_TS.BUP
Format : DVD Video
Format profile : Menu
File size : 18.0 KiB
Overall bit rate mode : Variable
FileExtension_Invalid : ifo
Video
ID : 224 (0xE0)
Format : MPEG Video
Format version : Version 2
Bit rate mode : Variable
Width : 720 pixels
Height : 480 pixels
Display aspect ratio : 4:3
Frame rate : 29.970 (29970/1000) FPS
Standard : NTSC
Compression mode : Lossy
Text
Format : RLE
Format/Info : Run-length encoding
Bit depth : 2 bits
General
Complete name : /media/erzsebet/ASSULT_THAT_ASS_10/VIDEO_TS/VIDEO_TS.IFO
Format : DVD Video
Format profile : Menu
File size : 18.0 KiB
Overall bit rate mode : Variable
Video
ID : 224 (0xE0)
Format : MPEG Video
Format version : Version 2
Bit rate mode : Variable
Width : 720 pixels
Height : 480 pixels
Display aspect ratio : 4:3
Frame rate : 29.970 (29970/1000) FPS
Standard : NTSC
Compression mode : Lossy
Text
Format : RLE
Format/Info : Run-length encoding
Bit depth : 2 bits
General
Complete name : /media/erzsebet/ASSULT_THAT_ASS_10/VIDEO_TS/VIDEO_TS.VOB
Format : MPEG-PS
File size : 114 KiB
Duration : 467 ms
Overall bit rate : 2 000 kb/s
Video
ID : 224 (0xE0)
Format : MPEG Video
Format version : Version 2
Format profile : [email protected]
Format settings : CustomMatrix / BVOP
Format settings, BVOP : Yes
Format settings, Matrix : Custom
Format settings, picture structure : Frame
Duration : 467 ms
Bit rate mode : Constant
Maximum bit rate : 2 000 kb/s
Width : 720 pixels
Height : 480 pixels
Display aspect ratio : 4:3
Frame rate : 29.970 (30000/1001) FPS
Standard : NTSC
Color space : YUV
Chroma subsampling : 4:2:0
Bit depth : 8 bits
Scan type : Interlaced
Scan order : Top Field First
Compression mode : Lossy
Time code of first frame : 00:00:00:01
Time code source : Group of pictures header
Text
ID : 189 (0xBD)-32 (0x20)
Format : RLE
Format/Info : Run-length encoding
Muxing mode : DVD-Video
Menu
General
Complete name : /media/erzsebet/ASSULT_THAT_ASS_10/VIDEO_TS/VTS_01_0.BUP
Format : DVD Video
Format profile : Program
File size : 112 KiB
Duration : 2 h 48 min
Overall bit rate mode : Variable
Overall bit rate : 91 b/s
FileExtension_Invalid : ifo
Video
ID : 224 (0xE0)
Format : MPEG Video
Format version : Version 2
Duration : 2 h 48 min
Bit rate mode : Variable
Width : 720 pixels
Height : 480 pixels
Display aspect ratio : 4:3
Frame rate : 29.970 (29970/1000) FPS
Standard : NTSC
Compression mode : Lossy
Audio
ID : 128 (0x80)
Format : AC-3
Format/Info : Audio Coding 3
Duration : 2 h 48 min
Channel(s) : 2 channels
Sampling rate : 48.0 kHz
Compression mode : Lossy
Menu
Duration : 2 h 48 min
00:00:00.000 : Chapter 1
00:01:57.866 : Chapter 2
00:04:15.832 : Chapter 3
00:07:36.832 : Chapter 4
00:11:30.332 : Chapter 5
00:14:00.332 : Chapter 6
00:17:38.332 : Chapter 7
00:23:04.332 : Chapter 8
00:28:00.832 : Chapter 9
00:33:15.832 : Chapter 10
00:35:02.332 : Chapter 11
00:35:39.598 : Chapter 12
00:43:16.331 : Chapter 13
00:45:16.831 : Chapter 14
00:48:38.831 : Chapter 15
00:53:34.331 : Chapter 16
01:00:05.831 : Chapter 17
01:07:34.331 : Chapter 18
01:10:35.331 : Chapter 19
01:12:02.831 : Chapter 20
01:17:06.231 : Chapter 21
01:19:06.731 : Chapter 22
01:22:20.231 : Chapter 23
01:24:06.231 : Chapter 24
01:27:48.231 : Chapter 25
01:33:24.731 : Chapter 26
01:39:37.731 : Chapter 27
01:43:06.231 : Chapter 28
01:43:57.731 : Chapter 29
01:44:59.231 : Chapter 30
01:47:17.497 : Chapter 31
01:49:08.497 : Chapter 32
01:52:12.997 : Chapter 33
01:55:14.497 : Chapter 34
02:02:10.397 : Chapter 35
02:06:44.397 : Chapter 36
02:12:57.897 : Chapter 37
02:14:14.397 : Chapter 38
02:16:33.397 : Chapter 39
02:19:45.897 : Chapter 40
02:21:20.897 : Chapter 41
02:22:35.897 : Chapter 42
02:24:11.897 : Chapter 43
02:26:30.897 : Chapter 44
02:29:42.897 : Chapter 45
02:33:17.897 : Chapter 46
02:38:29.397 : Chapter 47
02:41:24.397 : Chapter 48
02:43:56.397 : Chapter 49
02:45:38.897 : Chapter 50
02:46:38.397 : Chapter 51
02:48:31.897 : Chapter 52
List (Audio) : 0
General
Complete name : /media/erzsebet/ASSULT_THAT_ASS_10/VIDEO_TS/VTS_01_0.IFO
Format : DVD Video
Format profile : Program
File size : 112 KiB
Duration : 2 h 48 min
Overall bit rate mode : Variable
Overall bit rate : 91 b/s
Video
ID : 224 (0xE0)
Format : MPEG Video
Format version : Version 2
Duration : 2 h 48 min
Bit rate mode : Variable
Width : 720 pixels
Height : 480 pixels
Display aspect ratio : 4:3
Frame rate : 29.970 (29970/1000) FPS
Standard : NTSC
Compression mode : Lossy
Audio
ID : 128 (0x80)
Format : AC-3
Format/Info : Audio Coding 3
Duration : 2 h 48 min
Channel(s) : 2 channels
Sampling rate : 48.0 kHz
Compression mode : Lossy
Menu
Duration : 2 h 48 min
00:00:00.000 : Chapter 1
00:01:57.866 : Chapter 2
00:04:15.832 : Chapter 3
00:07:36.832 : Chapter 4
00:11:30.332 : Chapter 5
00:14:00.332 : Chapter 6
00:17:38.332 : Chapter 7
00:23:04.332 : Chapter 8
00:28:00.832 : Chapter 9
00:33:15.832 : Chapter 10
00:35:02.332 : Chapter 11
00:35:39.598 : Chapter 12
00:43:16.331 : Chapter 13
00:45:16.831 : Chapter 14
00:48:38.831 : Chapter 15
00:53:34.331 : Chapter 16
01:00:05.831 : Chapter 17
01:07:34.331 : Chapter 18
01:10:35.331 : Chapter 19
01:12:02.831 : Chapter 20
01:17:06.231 : Chapter 21
01:19:06.731 : Chapter 22
01:22:20.231 : Chapter 23
01:24:06.231 : Chapter 24
01:27:48.231 : Chapter 25
01:33:24.731 : Chapter 26
01:39:37.731 : Chapter 27
01:43:06.231 : Chapter 28
01:43:57.731 : Chapter 29
01:44:59.231 : Chapter 30
01:47:17.497 : Chapter 31
01:49:08.497 : Chapter 32
01:52:12.997 : Chapter 33
01:55:14.497 : Chapter 34
02:02:10.397 : Chapter 35
02:06:44.397 : Chapter 36
02:12:57.897 : Chapter 37
02:14:14.397 : Chapter 38
02:16:33.397 : Chapter 39
02:19:45.897 : Chapter 40
02:21:20.897 : Chapter 41
02:22:35.897 : Chapter 42
02:24:11.897 : Chapter 43
02:26:30.897 : Chapter 44
02:29:42.897 : Chapter 45
02:33:17.897 : Chapter 46
02:38:29.397 : Chapter 47
02:41:24.397 : Chapter 48
02:43:56.397 : Chapter 49
02:45:38.897 : Chapter 50
02:46:38.397 : Chapter 51
02:48:31.897 : Chapter 52
List (Audio) : 0
General
Complete name : /media/erzsebet/ASSULT_THAT_ASS_10/VIDEO_TS/VTS_01_0.VOB
Format : MPEG-PS
File size : 263 MiB
Duration : 1 min 0 s
Overall bit rate mode : Variable
Overall bit rate : 36.8 Mb/s
Video
ID : 224 (0xE0)
Format : MPEG Video
Format version : Version 2
Format profile : [email protected]
Format settings : CustomMatrix / BVOP
Format settings, BVOP : Yes
Format settings, Matrix : Custom
Format settings, GOP : Variable
Format settings, picture structure : Frame
Duration : 59 s 993 ms
Bit rate mode : Variable
Bit rate : 35.8 Mb/s
Maximum bit rate : 9 800 kb/s
Width : 720 pixels
Height : 480 pixels
Display aspect ratio : 4:3
Frame rate : 29.970 (30000/1001) FPS
Standard : NTSC
Color space : YUV
Chroma subsampling : 4:2:0
Bit depth : 8 bits
Scan type : Interlaced
Scan order : Top Field First
Compression mode : Lossy
Bits/(Pixel*Frame) : 3.460
Time code of first frame : 01:00:00:00
Time code source : Group of pictures header
GOP, Open/Closed : Closed
Stream size : 256 MiB (97%)
Audio
ID : 189 (0xBD)-128 (0x80)
Format : AC-3
Format/Info : Audio Coding 3
Commercial name : Dolby Digital
Muxing mode : DVD-Video
Duration : 1 min 0 s
Bit rate mode : Constant
Bit rate : 192 kb/s
Channel(s) : 2 channels
Channel layout : L R
Sampling rate : 48.0 kHz
Frame rate : 31.250 FPS (1536 SPF)
Bit depth : 16 bits
Compression mode : Lossy
Stream size : 1.37 MiB (1%)
Service kind : Complete Main
Menu
General
Complete name : /media/erzsebet/ASSULT_THAT_ASS_10/VIDEO_TS/VTS_01_1.VOB
Format : MPEG-PS
File size : 1 024 MiB
Duration : 29 min 9 s
Overall bit rate mode : Variable
Overall bit rate : 4 910 kb/s
Video
ID : 224 (0xE0)
Format : MPEG Video
Format version : Version 2
Format profile : [email protected]
Format settings : CustomMatrix / BVOP
Format settings, BVOP : Yes
Format settings, Matrix : Custom
Format settings, GOP : Variable
Format settings, picture structure : Frame
Duration : 29 min 9 s
Bit rate mode : Variable
Bit rate : 4 621 kb/s
Maximum bit rate : 9 800 kb/s
Width : 720 pixels
Height : 480 pixels
Display aspect ratio : 4:3
Frame rate : 29.970 (30000/1001) FPS
Standard : NTSC
Color space : YUV
Chroma subsampling : 4:2:0
Bit depth : 8 bits
Scan type : Interlaced
Scan order : Top Field First
Compression mode : Lossy
Bits/(Pixel*Frame) : 0.446
Time code of first frame : 01:02:05:13
Time code source : Group of pictures header
GOP, Open/Closed : Closed
Stream size : 963 MiB (94%)
Audio
ID : 189 (0xBD)-128 (0x80)
Format : AC-3
Format/Info : Audio Coding 3
Commercial name : Dolby Digital
Muxing mode : DVD-Video
Duration : 29 min 8 s
Bit rate mode : Constant
Bit rate : 192 kb/s
Channel(s) : 2 channels
Channel layout : L R
Sampling rate : 48.0 kHz
Frame rate : 31.250 FPS (1536 SPF)
Bit depth : 16 bits
Compression mode : Lossy
Stream size : 40.0 MiB (4%)
Service kind : Complete Main
Menu
General
Complete name : /media/erzsebet/ASSULT_THAT_ASS_10/VIDEO_TS/VTS_01_2.VOB
Format : MPEG-PS
File size : 1 024 MiB
Duration : 31 min 41 s
Overall bit rate mode : Variable
Overall bit rate : 4 516 kb/s
Video
ID : 224 (0xE0)
Format : MPEG Video
Format version : Version 2
Format profile : [email protected]
Format settings : CustomMatrix / BVOP
Format settings, BVOP : Yes
Format settings, Matrix : Custom
Format settings, GOP : M=3, N=15
Format settings, picture structure : Frame
Duration : 31 min 41 s
Bit rate mode : Variable
Bit rate : 4 234 kb/s
Maximum bit rate : 9 800 kb/s
Width : 720 pixels
Height : 480 pixels
Display aspect ratio : 4:3
Frame rate : 29.970 (30000/1001) FPS
Standard : NTSC
Color space : YUV
Chroma subsampling : 4:2:0
Bit depth : 8 bits
Scan type : Interlaced
Scan order : Top Field First
Compression mode : Lossy
Bits/(Pixel*Frame) : 0.409
Time code of first frame : 01:31:12:23
Time code source : Group of pictures header
GOP, Open/Closed : Closed
Stream size : 960 MiB (94%)
Audio
ID : 189 (0xBD)-128 (0x80)
Format : AC-3
Format/Info : Audio Coding 3
Commercial name : Dolby Digital
Muxing mode : DVD-Video
Duration : 31 min 41 s
Bit rate mode : Constant
Bit rate : 192 kb/s
Channel(s) : 2 channels
Channel layout : L R
Sampling rate : 48.0 kHz
Frame rate : 31.250 FPS (1536 SPF)
Bit depth : 16 bits
Compression mode : Lossy
Delay relative to video : -345 ms
Stream size : 43.5 MiB (4%)
Service kind : Complete Main
Menu
General
Complete name : /media/erzsebet/ASSULT_THAT_ASS_10/VIDEO_TS/VTS_01_3.VOB
Format : MPEG-PS
File size : 1 024 MiB
Duration : 29 min 10 s
Overall bit rate mode : Variable
Overall bit rate : 4 905 kb/s
Video
ID : 224 (0xE0)
Format : MPEG Video
Format version : Version 2
Format profile : [email protected]
Format settings : CustomMatrix / BVOP
Format settings, BVOP : Yes
Format settings, Matrix : Custom
Format settings, GOP : M=3, N=15
Format settings, picture structure : Frame
Duration : 29 min 10 s
Bit rate mode : Variable
Bit rate : 4 615 kb/s
Maximum bit rate : 9 800 kb/s
Width : 720 pixels
Height : 480 pixels
Display aspect ratio : 4:3
Frame rate : 29.970 (30000/1001) FPS
Standard : NTSC
Color space : YUV
Chroma subsampling : 4:2:0
Bit depth : 8 bits
Scan type : Interlaced
Scan order : Top Field First
Compression mode : Lossy
Bits/(Pixel*Frame) : 0.446
Time code of first frame : 02:02:52:23
Time code source : Group of pictures header
GOP, Open/Closed : Closed
Stream size : 963 MiB (94%)
Audio
ID : 189 (0xBD)-128 (0x80)
Format : AC-3
Format/Info : Audio Coding 3
Commercial name : Dolby Digital
Muxing mode : DVD-Video
Duration : 29 min 10 s
Bit rate mode : Constant
Bit rate : 192 kb/s
Channel(s) : 2 channels
Channel layout : L R
Sampling rate : 48.0 kHz
Frame rate : 31.250 FPS (1536 SPF)
Bit depth : 16 bits
Compression mode : Lossy
Delay relative to video : -325 ms
Stream size : 40.1 MiB (4%)
Service kind : Complete Main
Menu
General
Complete name : /media/erzsebet/ASSULT_THAT_ASS_10/VIDEO_TS/VTS_01_4.VOB
Format : MPEG-PS
File size : 1 024 MiB
Duration : 28 min 18 s
Overall bit rate mode : Variable
Overall bit rate : 5 056 kb/s
Video
ID : 224 (0xE0)
Format : MPEG Video
Format version : Version 2
Format profile : [email protected]
Format settings : CustomMatrix / BVOP
Format settings, BVOP : Yes
Format settings, Matrix : Custom
Format settings, GOP : M=3, N=15
Format settings, picture structure : Frame
Duration : 28 min 18 s
Bit rate mode : Variable
Bit rate : 4 763 kb/s
Maximum bit rate : 9 800 kb/s
Width : 720 pixels
Height : 480 pixels
Display aspect ratio : 4:3
Frame rate : 29.970 (30000/1001) FPS
Standard : NTSC
Color space : YUV
Chroma subsampling : 4:2:0
Bit depth : 8 bits
Scan type : Interlaced
Scan order : Top Field First
Compression mode : Lossy
Bits/(Pixel*Frame) : 0.460
Time code of first frame : 02:32:02:05
Time code source : Group of pictures header
GOP, Open/Closed : Closed
Stream size : 964 MiB (94%)
Audio
ID : 189 (0xBD)-128 (0x80)
Format : AC-3
Format/Info : Audio Coding 3
Commercial name : Dolby Digital
Muxing mode : DVD-Video
Duration : 28 min 18 s
Bit rate mode : Constant
Bit rate : 192 kb/s
Channel(s) : 2 channels
Channel layout : L R
Sampling rate : 48.0 kHz
Frame rate : 31.250 FPS (1536 SPF)
Bit depth : 16 bits
Compression mode : Lossy
Delay relative to video : -594 ms
Stream size : 38.9 MiB (4%)
Service kind : Complete Main
Menu
General
Complete name : /media/erzsebet/ASSULT_THAT_ASS_10/VIDEO_TS/VTS_01_5.VOB
Format : MPEG-PS
File size : 1 024 MiB
Duration : 28 min 19 s
Overall bit rate mode : Variable
Overall bit rate : 5 054 kb/s
Video
ID : 224 (0xE0)
Format : MPEG Video
Format version : Version 2
Format profile : [email protected]
Format settings : CustomMatrix / BVOP
Format settings, BVOP : Yes
Format settings, Matrix : Custom
Format settings, GOP : M=3, N=15
Format settings, picture structure : Frame
Duration : 28 min 18 s
Bit rate mode : Variable
Bit rate : 4 762 kb/s
Maximum bit rate : 9 800 kb/s
Width : 720 pixels
Height : 480 pixels
Display aspect ratio : 4:3
Frame rate : 29.970 (30000/1001) FPS
Standard : NTSC
Color space : YUV
Chroma subsampling : 4:2:0
Bit depth : 8 bits
Scan type : Interlaced
Scan order : Top Field First
Compression mode : Lossy
Bits/(Pixel*Frame) : 0.460
Time code of first frame : 03:00:19:10
Time code source : Group of pictures header
GOP, Open/Closed : Closed
Stream size : 964 MiB (94%)
Audio
ID : 189 (0xBD)-128 (0x80)
Format : AC-3
Format/Info : Audio Coding 3
Commercial name : Dolby Digital
Muxing mode : DVD-Video
Duration : 28 min 19 s
Bit rate mode : Constant
Bit rate : 192 kb/s
Channel(s) : 2 channels
Channel layout : L R
Sampling rate : 48.0 kHz
Frame rate : 31.250 FPS (1536 SPF)
Bit depth : 16 bits
Compression mode : Lossy
Delay relative to video : -642 ms
Stream size : 38.9 MiB (4%)
Service kind : Complete Main
Menu
General
Complete name : /media/erzsebet/ASSULT_THAT_ASS_10/VIDEO_TS/VTS_01_6.VOB
Format : MPEG-PS
File size : 812 MiB
Duration : 22 min 2 s
Overall bit rate mode : Variable
Overall bit rate : 5 151 kb/s
Video
ID : 224 (0xE0)
Format : MPEG Video
Format version : Version 2
Format profile : [email protected]
Format settings : CustomMatrix / BVOP
Format settings, BVOP : Yes
Format settings, Matrix : Custom
Format settings, GOP : M=3, N=15
Format settings, picture structure : Frame
Duration : 22 min 2 s
Bit rate mode : Variable
Bit rate : 4 856 kb/s
Maximum bit rate : 9 800 kb/s
Width : 720 pixels
Height : 480 pixels
Display aspect ratio : 4:3
Frame rate : 29.970 (30000/1001) FPS
Standard : NTSC
Color space : YUV
Chroma subsampling : 4:2:0
Bit depth : 8 bits
Scan type : Interlaced
Scan order : Top Field First
Compression mode : Lossy
Bits/(Pixel*Frame) : 0.469
Time code of first frame : 03:28:36:25
Time code source : Group of pictures header
GOP, Open/Closed : Closed
Stream size : 765 MiB (94%)
Audio
ID : 189 (0xBD)-128 (0x80)
Format : AC-3
Format/Info : Audio Coding 3
Commercial name : Dolby Digital
Muxing mode : DVD-Video
Duration : 22 min 2 s
Bit rate mode : Constant
Bit rate : 192 kb/s
Channel(s) : 2 channels
Channel layout : L R
Sampling rate : 48.0 kHz
Frame rate : 31.250 FPS (1536 SPF)
Bit depth : 16 bits
Compression mode : Lossy
Delay relative to video : -512 ms
Stream size : 30.3 MiB (4%)
Service kind : Complete Main
Menu
General
Complete name : /media/erzsebet/ASSULT_THAT_ASS_10/VIDEO_TS/VTS_02_0.BUP
Format : DVD Video
Format profile : Program
File size : 22.0 KiB
Duration : 4 min 33 s
Overall bit rate mode : Variable
Overall bit rate : 659 b/s
FileExtension_Invalid : ifo
Video
ID : 224 (0xE0)
Format : MPEG Video
Format version : Version 2
Duration : 4 min 33 s
Bit rate mode : Variable
Width : 720 pixels
Height : 480 pixels
Display aspect ratio : 4:3
Frame rate : 29.970 (29970/1000) FPS
Standard : NTSC
Compression mode : Lossy
Audio
ID : 128 (0x80)
Format : AC-3
Format/Info : Audio Coding 3
Duration : 4 min 33 s
Channel(s) : 2 channels
Sampling rate : 48.0 kHz
Compression mode : Lossy
Menu
Duration : 4 min 33 s
00:00:00.000 : Chapter 1
00:00:07.500 : Chapter 2
00:00:13.500 : Chapter 3
00:00:19.500 : Chapter 4
00:00:25.500 : Chapter 5
00:00:31.500 : Chapter 6
00:00:37.500 : Chapter 7
00:00:43.500 : Chapter 8
00:00:49.500 : Chapter 9
00:00:55.500 : Chapter 10
00:01:01.500 : Chapter 11
00:01:07.500 : Chapter 12
00:01:13.500 : Chapter 13
00:01:19.500 : Chapter 14
00:01:25.500 : Chapter 15
00:01:31.500 : Chapter 16
00:01:38.000 : Chapter 17
00:01:44.000 : Chapter 18
00:01:50.000 : Chapter 19
00:01:56.000 : Chapter 20
00:02:02.000 : Chapter 21
00:02:08.000 : Chapter 22
00:02:14.000 : Chapter 23
00:02:20.000 : Chapter 24
00:02:26.000 : Chapter 25
00:02:32.000 : Chapter 26
00:02:38.000 : Chapter 27
00:02:44.000 : Chapter 28
00:02:50.000 : Chapter 29
00:02:56.000 : Chapter 30
00:03:02.000 : Chapter 31
00:03:08.500 : Chapter 32
00:03:14.500 : Chapter 33
00:03:20.500 : Chapter 34
00:03:26.500 : Chapter 35
00:03:32.500 : Chapter 36
00:03:38.500 : Chapter 37
00:03:45.000 : Chapter 38
00:03:50.500 : Chapter 39
00:03:56.500 : Chapter 40
00:04:02.500 : Chapter 41
00:04:08.500 : Chapter 42
00:04:14.500 : Chapter 43
00:04:20.500 : Chapter 44
00:04:26.500 : Chapter 45
00:04:33.066 : Chapter 46
List (Audio) : 0
General
Complete name : /media/erzsebet/ASSULT_THAT_ASS_10/VIDEO_TS/VTS_02_0.IFO
Format : DVD Video
Format profile : Program
File size : 22.0 KiB
Duration : 4 min 33 s
Overall bit rate mode : Variable
Overall bit rate : 659 b/s
Video
ID : 224 (0xE0)
Format : MPEG Video
Format version : Version 2
Duration : 4 min 33 s
Bit rate mode : Variable
Width : 720 pixels
Height : 480 pixels
Display aspect ratio : 4:3
Frame rate : 29.970 (29970/1000) FPS
Standard : NTSC
Compression mode : Lossy
Audio
ID : 128 (0x80)
Format : AC-3
Format/Info : Audio Coding 3
Duration : 4 min 33 s
Channel(s) : 2 channels
Sampling rate : 48.0 kHz
Compression mode : Lossy
Menu
Duration : 4 min 33 s
00:00:00.000 : Chapter 1
00:00:07.500 : Chapter 2
00:00:13.500 : Chapter 3
00:00:19.500 : Chapter 4
00:00:25.500 : Chapter 5
00:00:31.500 : Chapter 6
00:00:37.500 : Chapter 7
00:00:43.500 : Chapter 8
00:00:49.500 : Chapter 9
00:00:55.500 : Chapter 10
00:01:01.500 : Chapter 11
00:01:07.500 : Chapter 12
00:01:13.500 : Chapter 13
00:01:19.500 : Chapter 14
00:01:25.500 : Chapter 15
00:01:31.500 : Chapter 16
00:01:38.000 : Chapter 17
00:01:44.000 : Chapter 18
00:01:50.000 : Chapter 19
00:01:56.000 : Chapter 20
00:02:02.000 : Chapter 21
00:02:08.000 : Chapter 22
00:02:14.000 : Chapter 23
00:02:20.000 : Chapter 24
00:02:26.000 : Chapter 25
00:02:32.000 : Chapter 26
00:02:38.000 : Chapter 27
00:02:44.000 : Chapter 28
00:02:50.000 : Chapter 29
00:02:56.000 : Chapter 30
00:03:02.000 : Chapter 31
00:03:08.500 : Chapter 32
00:03:14.500 : Chapter 33
00:03:20.500 : Chapter 34
00:03:26.500 : Chapter 35
00:03:32.500 : Chapter 36
00:03:38.500 : Chapter 37
00:03:45.000 : Chapter 38
00:03:50.500 : Chapter 39
00:03:56.500 : Chapter 40
00:04:02.500 : Chapter 41
00:04:08.500 : Chapter 42
00:04:14.500 : Chapter 43
00:04:20.500 : Chapter 44
00:04:26.500 : Chapter 45
00:04:33.066 : Chapter 46
List (Audio) : 0
General
Complete name : /media/erzsebet/ASSULT_THAT_ASS_10/VIDEO_TS/VTS_02_0.VOB
Format : MPEG-PS
File size : 114 KiB
Duration : 467 ms
Overall bit rate : 2 000 kb/s
Video
ID : 224 (0xE0)
Format : MPEG Video
Format version : Version 2
Format profile : [email protected]
Format settings : CustomMatrix / BVOP
Format settings, BVOP : Yes
Format settings, Matrix : Custom
Format settings, picture structure : Frame
Duration : 467 ms
Bit rate mode : Constant
Maximum bit rate : 2 000 kb/s
Width : 720 pixels
Height : 480 pixels
Display aspect ratio : 4:3
Frame rate : 29.970 (30000/1001) FPS
Standard : NTSC
Color space : YUV
Chroma subsampling : 4:2:0
Bit depth : 8 bits
Scan type : Interlaced
Scan order : Top Field First
Compression mode : Lossy
Time code of first frame : 00:00:00:01
Time code source : Group of pictures header
Text
ID : 189 (0xBD)-32 (0x20)
Format : RLE
Format/Info : Run-length encoding
Muxing mode : DVD-Video
Menu
General
Complete name : /media/erzsebet/ASSULT_THAT_ASS_10/VIDEO_TS/VTS_02_1.VOB
Format : MPEG-PS
File size : 175 MiB
Duration : 4 min 33 s
Overall bit rate mode : Variable
Overall bit rate : 5 376 kb/s
Video
ID : 224 (0xE0)
Format : MPEG Video
Format version : Version 2
Format profile : [email protected]
Format settings : CustomMatrix / BVOP
Format settings, BVOP : Yes
Format settings, Matrix : Custom
Format settings, GOP : M=3, N=15
Format settings, picture structure : Frame
Duration : 4 min 33 s
Bit rate mode : Variable
Bit rate : 5 077 kb/s
Maximum bit rate : 9 800 kb/s
Width : 720 pixels
Height : 480 pixels
Display aspect ratio : 4:3
Frame rate : 29.970 (30000/1001) FPS
Standard : NTSC
Color space : YUV
Chroma subsampling : 4:2:0
Bit depth : 8 bits
Scan type : Interlaced
Scan order : Top Field First
Compression mode : Lossy
Bits/(Pixel*Frame) : 0.490
Time code of first frame : 01:00:00:00
Time code source : Group of pictures header
GOP, Open/Closed : Closed
Stream size : 166 MiB (94%)
Audio
ID : 189 (0xBD)-128 (0x80)
Format : AC-3
Format/Info : Audio Coding 3
Commercial name : Dolby Digital
Muxing mode : DVD-Video
Duration : 4 min 33 s
Bit rate mode : Constant
Bit rate : 192 kb/s
Channel(s) : 2 channels
Channel layout : L R
Sampling rate : 48.0 kHz
Frame rate : 31.250 FPS (1536 SPF)
Bit depth : 16 bits
Compression mode : Lossy
Stream size : 6.26 MiB (4%)
Service kind : Complete Main
Menu
General
Complete name : /media/erzsebet/ASSULT_THAT_ASS_10/VIDEO_TS/VTS_03_0.BUP
Format : DVD Video
Format profile : Program
File size : 18.0 KiB
Duration : 1 min 3 s
Overall bit rate mode : Variable
Overall bit rate : 2 322 b/s
FileExtension_Invalid : ifo
Video
ID : 224 (0xE0)
Format : MPEG Video
Format version : Version 2
Duration : 1 min 3 s
Bit rate mode : Variable
Width : 720 pixels
Height : 480 pixels
Display aspect ratio : 4:3
Frame rate : 29.970 (29970/1000) FPS
Standard : NTSC
Compression mode : Lossy
Menu
Duration : 1 min 3 s
00:00:00.000 : Chapter 1
General
Complete name : /media/erzsebet/ASSULT_THAT_ASS_10/VIDEO_TS/VTS_03_0.IFO
Format : DVD Video
Format profile : Program
File size : 18.0 KiB
Duration : 1 min 3 s
Overall bit rate mode : Variable
Overall bit rate : 2 322 b/s
Video
ID : 224 (0xE0)
Format : MPEG Video
Format version : Version 2
Duration : 1 min 3 s
Bit rate mode : Variable
Width : 720 pixels
Height : 480 pixels
Display aspect ratio : 4:3
Frame rate : 29.970 (29970/1000) FPS
Standard : NTSC
Compression mode : Lossy
Menu
Duration : 1 min 3 s
00:00:00.000 : Chapter 1
General
Complete name : /media/erzsebet/ASSULT_THAT_ASS_10/VIDEO_TS/VTS_03_0.VOB
Format : MPEG-PS
File size : 114 KiB
Duration : 467 ms
Overall bit rate : 2 000 kb/s
Video
ID : 224 (0xE0)
Format : MPEG Video
Format version : Version 2
Format profile : [email protected]
Format settings : CustomMatrix / BVOP
Format settings, BVOP : Yes
Format settings, Matrix : Custom
Format settings, picture structure : Frame
Duration : 467 ms
Bit rate mode : Constant
Maximum bit rate : 2 000 kb/s
Width : 720 pixels
Height : 480 pixels
Display aspect ratio : 4:3
Frame rate : 29.970 (30000/1001) FPS
Standard : NTSC
Color space : YUV
Chroma subsampling : 4:2:0
Bit depth : 8 bits
Scan type : Interlaced
Scan order : Top Field First
Compression mode : Lossy
Time code of first frame : 00:00:00:01
Time code source : Group of pictures header
Text
ID : 189 (0xBD)-32 (0x20)
Format : RLE
Format/Info : Run-length encoding
Muxing mode : DVD-Video
Menu
General
Complete name : /media/erzsebet/ASSULT_THAT_ASS_10/VIDEO_TS/VTS_03_1.VOB
Format : MPEG-PS
File size : 16.5 MiB
Duration : 1 min 3 s
Overall bit rate mode : Variable
Overall bit rate : 2 171 kb/s
Video
ID : 224 (0xE0)
Format : MPEG Video
Format version : Version 2
Format profile : [email protected]
Format settings : CustomMatrix / BVOP
Format settings, BVOP : Yes
Format settings, Matrix : Custom
Format settings, GOP : M=3, N=15
Format settings, picture structure : Frame
Duration : 1 min 3 s
Bit rate mode : Variable
Bit rate : 2 128 kb/s
Maximum bit rate : 9 800 kb/s
Width : 720 pixels
Height : 480 pixels
Display aspect ratio : 4:3
Frame rate : 29.970 (30000/1001) FPS
Standard : NTSC
Color space : YUV
Chroma subsampling : 4:2:0
Bit depth : 8 bits
Scan type : Interlaced
Scan order : Top Field First
Compression mode : Lossy
Bits/(Pixel*Frame) : 0.205
Time code of first frame : 01:01:01:13
Time code source : Group of pictures header
GOP, Open/Closed : Closed
Stream size : 16.1 MiB (98%)
Menu
General
Complete name : /media/erzsebet/ASSULT_THAT_ASS_10/VIDEO_TS/VTS_04_0.BUP
Format : DVD Video
Format profile : Program
File size : 18.0 KiB
Duration : 500 ms
Overall bit rate mode : Variable
Overall bit rate : 295 kb/s
FileExtension_Invalid : ifo
Video
ID : 224 (0xE0)
Format : MPEG Video
Format version : Version 2
Duration : 501 ms
Bit rate mode : Variable
Width : 720 pixels
Height : 480 pixels
Display aspect ratio : 4:3
Frame rate : 29.970 (29970/1000) FPS
Standard : NTSC
Compression mode : Lossy
Menu
Duration : 500 ms
00:00:00.000 : Chapter 1
General
Complete name : /media/erzsebet/ASSULT_THAT_ASS_10/VIDEO_TS/VTS_04_0.IFO
Format : DVD Video
Format profile : Program
File size : 18.0 KiB
Duration : 500 ms
Overall bit rate mode : Variable
Overall bit rate : 295 kb/s
Video
ID : 224 (0xE0)
Format : MPEG Video
Format version : Version 2
Duration : 501 ms
Bit rate mode : Variable
Width : 720 pixels
Height : 480 pixels
Display aspect ratio : 4:3
Frame rate : 29.970 (29970/1000) FPS
Standard : NTSC
Compression mode : Lossy
Menu
Duration : 500 ms
00:00:00.000 : Chapter 1
General
Complete name : /media/erzsebet/ASSULT_THAT_ASS_10/VIDEO_TS/VTS_04_0.VOB
Format : MPEG-PS
File size : 114 KiB
Duration : 467 ms
Overall bit rate : 2 000 kb/s
Video
ID : 224 (0xE0)
Format : MPEG Video
Format version : Version 2
Format profile : [email protected]
Format settings : CustomMatrix / BVOP
Format settings, BVOP : Yes
Format settings, Matrix : Custom
Format settings, picture structure : Frame
Duration : 467 ms
Bit rate mode : Constant
Maximum bit rate : 2 000 kb/s
Width : 720 pixels
Height : 480 pixels
Display aspect ratio : 4:3
Frame rate : 29.970 (30000/1001) FPS
Standard : NTSC
Color space : YUV
Chroma subsampling : 4:2:0
Bit depth : 8 bits
Scan type : Interlaced
Scan order : Top Field First
Compression mode : Lossy
Time code of first frame : 00:00:00:01
Time code source : Group of pictures header
Text
ID : 189 (0xBD)-32 (0x20)
Format : RLE
Format/Info : Run-length encoding
Muxing mode : DVD-Video
Menu
General
Complete name : /media/erzsebet/ASSULT_THAT_ASS_10/VIDEO_TS/VTS_04_1.VOB
Format : MPEG-PS
File size : 374 KiB
Duration : 501 ms
Overall bit rate mode : Constant
Overall bit rate : 6 115 kb/s
Video
ID : 224 (0xE0)
Format : MPEG Video
Format version : Version 2
Format profile : [email protected]
Format settings : CustomMatrix / BVOP
Format settings, BVOP : Yes
Format settings, Matrix : Custom
Format settings, picture structure : Frame
Duration : 501 ms
Bit rate mode : Constant
Maximum bit rate : 6 000 kb/s
Width : 720 pixels
Height : 480 pixels
Display aspect ratio : 4:3
Frame rate : 29.970 (30000/1001) FPS
Standard : NTSC
Color space : YUV
Chroma subsampling : 4:2:0
Bit depth : 8 bits
Scan type : Interlaced
Scan order : Top Field First
Compression mode : Lossy
Time code of first frame : 01:00:00:00
Time code source : Group of pictures header
Menu
General
Complete name : /media/erzsebet/ASSULT_THAT_ASS_10/VIDEO_TS/VTS_05_0.BUP
Format : DVD Video
Format profile : Program
File size : 24.0 KiB
Duration : 7 min 2 s
Overall bit rate mode : Variable
Overall bit rate : 465 b/s
FileExtension_Invalid : ifo
Video
ID : 224 (0xE0)
Format : MPEG Video
Format version : Version 2
Duration : 7 min 2 s
Bit rate mode : Variable
Width : 720 pixels
Height : 480 pixels
Display aspect ratio : 4:3
Frame rate : 29.970 (29970/1000) FPS
Standard : NTSC
Compression mode : Lossy
Audio
ID : 128 (0x80)
Format : AC-3
Format/Info : Audio Coding 3
Duration : 7 min 2 s
Channel(s) : 2 channels
Sampling rate : 48.0 kHz
Compression mode : Lossy
Menu #1
Duration : 7 min 2 s
00:00:00.000 : Chapter 1
00:00:42.000 : Chapter 2
00:02:11.500 : Chapter 3
00:04:16.000 : Chapter 4
00:05:47.000 : Chapter 5
00:07:02.400 : Chapter 6
List (Audio) : 0
Menu #2
Duration : 42 s 500 ms
00:00:00.000 : Chapter 1
00:00:42.000 : Chapter 2
List (Audio) : 0
Menu #3
Duration : 1 min 30 s
00:00:00.000 : Chapter 1
00:01:29.500 : Chapter 2
List (Audio) : 0
Menu #4
Duration : 2 min 5 s
00:00:00.000 : Chapter 1
00:02:04.500 : Chapter 2
List (Audio) : 0
Menu #5
Duration : 1 min 31 s
00:00:00.000 : Chapter 1
00:01:31.000 : Chapter 2
List (Audio) : 0
Menu #6
Duration : 1 min 15 s
00:00:00.000 : Chapter 1
00:01:15.400 : Chapter 2
List (Audio) : 0
General
Complete name : /media/erzsebet/ASSULT_THAT_ASS_10/VIDEO_TS/VTS_05_0.IFO
Format : DVD Video
Format profile : Program
File size : 24.0 KiB
Duration : 7 min 2 s
Overall bit rate mode : Variable
Overall bit rate : 465 b/s
Video
ID : 224 (0xE0)
Format : MPEG Video
Format version : Version 2
Duration : 7 min 2 s
Bit rate mode : Variable
Width : 720 pixels
Height : 480 pixels
Display aspect ratio : 4:3
Frame rate : 29.970 (29970/1000) FPS
Standard : NTSC
Compression mode : Lossy
Audio
ID : 128 (0x80)
Format : AC-3
Format/Info : Audio Coding 3
Duration : 7 min 2 s
Channel(s) : 2 channels
Sampling rate : 48.0 kHz
Compression mode : Lossy
Menu #1
Duration : 7 min 2 s
00:00:00.000 : Chapter 1
00:00:42.000 : Chapter 2
00:02:11.500 : Chapter 3
00:04:16.000 : Chapter 4
00:05:47.000 : Chapter 5
00:07:02.400 : Chapter 6
List (Audio) : 0
Menu #2
Duration : 42 s 500 ms
00:00:00.000 : Chapter 1
00:00:42.000 : Chapter 2
List (Audio) : 0
Menu #3
Duration : 1 min 30 s
00:00:00.000 : Chapter 1
00:01:29.500 : Chapter 2
List (Audio) : 0
Menu #4
Duration : 2 min 5 s
00:00:00.000 : Chapter 1
00:02:04.500 : Chapter 2
List (Audio) : 0
Menu #5
Duration : 1 min 31 s
00:00:00.000 : Chapter 1
00:01:31.000 : Chapter 2
List (Audio) : 0
Menu #6
Duration : 1 min 15 s
00:00:00.000 : Chapter 1
00:01:15.400 : Chapter 2
List (Audio) : 0
General
Complete name : /media/erzsebet/ASSULT_THAT_ASS_10/VIDEO_TS/VTS_05_0.VOB
Format : MPEG-PS
File size : 114 KiB
Duration : 467 ms
Overall bit rate : 2 000 kb/s
Video
ID : 224 (0xE0)
Format : MPEG Video
Format version : Version 2
Format profile : [email protected]
Format settings : CustomMatrix / BVOP
Format settings, BVOP : Yes
Format settings, Matrix : Custom
Format settings, picture structure : Frame
Duration : 467 ms
Bit rate mode : Constant
Maximum bit rate : 2 000 kb/s
Width : 720 pixels
Height : 480 pixels
Display aspect ratio : 4:3
Frame rate : 29.970 (30000/1001) FPS
Standard : NTSC
Color space : YUV
Chroma subsampling : 4:2:0
Bit depth : 8 bits
Scan type : Interlaced
Scan order : Top Field First
Compression mode : Lossy
Time code of first frame : 00:00:00:01
Time code source : Group of pictures header
Text
ID : 189 (0xBD)-32 (0x20)
Format : RLE
Format/Info : Run-length encoding
Muxing mode : DVD-Video
Menu
General
Complete name : /media/erzsebet/ASSULT_THAT_ASS_10/VIDEO_TS/VTS_05_1.VOB
Format : MPEG-PS
File size : 243 MiB
Duration : 7 min 3 s
Overall bit rate mode : Variable
Overall bit rate : 4 806 kb/s
Video
ID : 224 (0xE0)
Format : MPEG Video
Format version : Version 2
Format profile : [email protected]
Format settings : CustomMatrix / BVOP
Format settings, BVOP : Yes
Format settings, Matrix : Custom
Format settings, GOP : M=3, N=15
Format settings, picture structure : Frame
Duration : 7 min 3 s
Bit rate mode : Variable
Bit rate : 4 518 kb/s
Maximum bit rate : 9 800 kb/s
Width : 720 pixels
Height : 480 pixels
Display aspect ratio : 4:3
Frame rate : 29.970 (30000/1001) FPS
Standard : NTSC
Color space : YUV
Chroma subsampling : 4:2:0
Bit depth : 8 bits
Scan type : Interlaced
Scan order : Top Field First
Compression mode : Lossy
Bits/(Pixel*Frame) : 0.436
Time code of first frame : 01:24:17:02
Time code source : Group of pictures header
GOP, Open/Closed : Closed
Stream size : 228 MiB (94%)
Audio
ID : 189 (0xBD)-128 (0x80)
Format : AC-3
Format/Info : Audio Coding 3
Commercial name : Dolby Digital
Muxing mode : DVD-Video
Duration : 7 min 2 s
Bit rate mode : Constant
Bit rate : 192 kb/s
Channel(s) : 2 channels
Channel layout : L R
Sampling rate : 48.0 kHz
Frame rate : 31.250 FPS (1536 SPF)
Bit depth : 16 bits
Compression mode : Lossy
Stream size : 9.68 MiB (4%)
Service kind : Complete Main
Menu
General
Complete name : /media/erzsebet/ASSULT_THAT_ASS_10/VIDEO_TS/VTS_06_0.BUP
Format : DVD Video
Format profile : Program
File size : 32.0 KiB
Duration : 24 min 3 s
Overall bit rate mode : Variable
Overall bit rate : 182 b/s
FileExtension_Invalid : ifo
Video
ID : 224 (0xE0)
Format : MPEG Video
Format version : Version 2
Duration : 24 min 3 s
Bit rate mode : Variable
Width : 720 pixels
Height : 480 pixels
Display aspect ratio : 4:3
Frame rate : 29.970 (29970/1000) FPS
Standard : NTSC
Compression mode : Lossy
Audio
ID : 128 (0x80)
Format : AC-3
Format/Info : Audio Coding 3
Duration : 24 min 3 s
Channel(s) : 2 channels
Sampling rate : 48.0 kHz
Compression mode : Lossy
Menu
Duration : 24 min 3 s
00:00:00.000 : Chapter 1
00:00:32.500 : Chapter 2
00:02:10.000 : Chapter 3
00:03:58.000 : Chapter 4
00:07:44.500 : Chapter 5
00:12:46.500 : Chapter 6
00:24:03.066 : Chapter 7
List (Audio) : 0
General
Complete name : /media/erzsebet/ASSULT_THAT_ASS_10/VIDEO_TS/VTS_06_0.IFO
Format : DVD Video
Format profile : Program
File size : 32.0 KiB
Duration : 24 min 3 s
Overall bit rate mode : Variable
Overall bit rate : 182 b/s
Video
ID : 224 (0xE0)
Format : MPEG Video
Format version : Version 2
Duration : 24 min 3 s
Bit rate mode : Variable
Width : 720 pixels
Height : 480 pixels
Display aspect ratio : 4:3
Frame rate : 29.970 (29970/1000) FPS
Standard : NTSC
Compression mode : Lossy
Audio
ID : 128 (0x80)
Format : AC-3
Format/Info : Audio Coding 3
Duration : 24 min 3 s
Channel(s) : 2 channels
Sampling rate : 48.0 kHz
Compression mode : Lossy
Menu
Duration : 24 min 3 s
00:00:00.000 : Chapter 1
00:00:32.500 : Chapter 2
00:02:10.000 : Chapter 3
00:03:58.000 : Chapter 4
00:07:44.500 : Chapter 5
00:12:46.500 : Chapter 6
00:24:03.066 : Chapter 7
List (Audio) : 0
General
Complete name : /media/erzsebet/ASSULT_THAT_ASS_10/VIDEO_TS/VTS_06_0.VOB
Format : MPEG-PS
File size : 114 KiB
Duration : 467 ms
Overall bit rate : 2 000 kb/s
Video
ID : 224 (0xE0)
Format : MPEG Video
Format version : Version 2
Format profile : [email protected]
Format settings : CustomMatrix / BVOP
Format settings, BVOP : Yes
Format settings, Matrix : Custom
Format settings, picture structure : Frame
Duration : 467 ms
Bit rate mode : Constant
Maximum bit rate : 2 000 kb/s
Width : 720 pixels
Height : 480 pixels
Display aspect ratio : 4:3
Frame rate : 29.970 (30000/1001) FPS
Standard : NTSC
Color space : YUV
Chroma subsampling : 4:2:0
Bit depth : 8 bits
Scan type : Interlaced
Scan order : Top Field First
Compression mode : Lossy
Time code of first frame : 00:00:00:01
Time code source : Group of pictures header
Text
ID : 189 (0xBD)-32 (0x20)
Format : RLE
Format/Info : Run-length encoding
Muxing mode : DVD-Video
Menu
General
Complete name : /media/erzsebet/ASSULT_THAT_ASS_10/VIDEO_TS/VTS_06_1.VOB
Format : MPEG-PS
File size : 826 MiB
Duration : 24 min 5 s
Overall bit rate mode : Variable
Overall bit rate : 4 797 kb/s
Video
ID : 224 (0xE0)
Format : MPEG Video
Format version : Version 2
Format profile : [email protected]
Format settings : CustomMatrix / BVOP
Format settings, BVOP : Yes
Format settings, Matrix : Custom
Format settings, GOP : M=3, N=15
Format settings, picture structure : Frame
Duration : 24 min 5 s
Bit rate mode : Variable
Bit rate : 4 509 kb/s
Maximum bit rate : 9 800 kb/s
Width : 720 pixels
Height : 480 pixels
Display aspect ratio : 4:3
Frame rate : 29.970 (30000/1001) FPS
Standard : NTSC
Color space : YUV
Chroma subsampling : 4:2:0
Bit depth : 8 bits
Scan type : Interlaced
Scan order : Top Field First
Compression mode : Lossy
Bits/(Pixel*Frame) : 0.435
Time code of first frame : 01:00:00:14
Time code source : Group of pictures header
GOP, Open/Closed : Closed
Stream size : 777 MiB (94%)
Audio
ID : 189 (0xBD)-128 (0x80)
Format : AC-3
Format/Info : Audio Coding 3
Commercial name : Dolby Digital
Muxing mode : DVD-Video
Duration : 24 min 4 s
Bit rate mode : Constant
Bit rate : 192 kb/s
Channel(s) : 2 channels
Channel layout : L R
Sampling rate : 48.0 kHz
Frame rate : 31.250 FPS (1536 SPF)
Bit depth : 16 bits
Compression mode : Lossy
Stream size : 33.1 MiB (4%)
Service kind : Complete Main
Menu

Screenshots

[erzsebet.org].t2924607.torrent
Торрент: Зарегистрирован [ 2020-06-30 12:15 ]

Скачать .torrent

Скачать

9 KB

Статус: проверено
Скачан: 0 раз
Размер: 7.28 GB
Поблагодарили: 0  Спасибо
terms.php
[Профиль]  [ЛС] 
Показать сообщения:    
Ответить на тему

Текущее время: 11-Июл 00:34

Часовой пояс: UTC + 3



Вы не можете начинать темы
Вы не можете отвечать на сообщения
Вы не можете редактировать свои сообщения
Вы не можете удалять свои сообщения
Вы не можете голосовать в опросах
Вы не можете прикреплять файлы к сообщениям
Вы можете скачивать файлы