Assault That Ass 12 (John Strong / Red Light District) [2007, Anal, DP, ATM, Group, Threesome, Gonzo, DVD9] Jayna Oso, Bobbi Starr, Missy Blue, Desiree Diamond, Madison Young

Ответить на тему
Статистика раздачи
Размер:  7.43 GB   |    Зарегистрирован:  11 дней   |    Скачан:  0 раз
Сидов:  2   Личеров:  1  
 
 
Автор Сообщение

erzsebet ®

Стаж: 18 лет

Сообщений: 471164

Откуда: Венгрия

Создавать темы 30-Июн-2020 12:21  |  Сменить автора

[Цитировать] 

Assault That Ass 12
Штурм анального отверстия 12
Год релиза: 2007 г.
Страна: USA
Жанр: Anal, DP, ATM, Group, Threesome, Gonzo
Продолжительность: 02:57:05
Режиссер: John Strong
Студия: Red Light District
В ролях:
Jayna Oso, Bobbi Starr, Missy Blue, Desiree Diamond, Madison Young

Описание:
It's time for the latest installment in Red Light District's famed anal series, Assault That Ass.
Featuring anal queen Bobbi Starr and a cast of sex-starved beauties who live to get their butts plugged and their faces covered in cream.
Качество видео: DVD9
Формат видео: DVD-Video

MediaInfo

General
Complete name : /media/erzsebet/ASSAULT_THAT_ASS_12/VIDEO_TS/VIDEO_TS.BUP
Format : DVD Video
Format profile : Menu
File size : 22.0 KiB
Overall bit rate mode : Variable
FileExtension_Invalid : ifo
Video
ID : 224 (0xE0)
Format : MPEG Video
Format version : Version 2
Bit rate mode : Variable
Width : 720 pixels
Height : 480 pixels
Display aspect ratio : 4:3
Frame rate : 29.970 (29970/1000) FPS
Standard : NTSC
Compression mode : Lossy
Text
Format : RLE
Format/Info : Run-length encoding
Bit depth : 2 bits
General
Complete name : /media/erzsebet/ASSAULT_THAT_ASS_12/VIDEO_TS/VIDEO_TS.IFO
Format : DVD Video
Format profile : Menu
File size : 22.0 KiB
Overall bit rate mode : Variable
Video
ID : 224 (0xE0)
Format : MPEG Video
Format version : Version 2
Bit rate mode : Variable
Width : 720 pixels
Height : 480 pixels
Display aspect ratio : 4:3
Frame rate : 29.970 (29970/1000) FPS
Standard : NTSC
Compression mode : Lossy
Text
Format : RLE
Format/Info : Run-length encoding
Bit depth : 2 bits
General
Complete name : /media/erzsebet/ASSAULT_THAT_ASS_12/VIDEO_TS/VIDEO_TS.VOB
Format : MPEG-PS
File size : 114 KiB
Duration : 467 ms
Overall bit rate : 2 000 kb/s
Video
ID : 224 (0xE0)
Format : MPEG Video
Format version : Version 2
Format profile : [email protected]
Format settings : CustomMatrix / BVOP
Format settings, BVOP : Yes
Format settings, Matrix : Custom
Format settings, picture structure : Frame
Duration : 467 ms
Bit rate mode : Constant
Maximum bit rate : 2 000 kb/s
Width : 720 pixels
Height : 480 pixels
Display aspect ratio : 4:3
Frame rate : 29.970 (30000/1001) FPS
Standard : NTSC
Color space : YUV
Chroma subsampling : 4:2:0
Bit depth : 8 bits
Scan type : Interlaced
Scan order : Top Field First
Compression mode : Lossy
Time code of first frame : 00:00:00:01
Time code source : Group of pictures header
Text
ID : 189 (0xBD)-32 (0x20)
Format : RLE
Format/Info : Run-length encoding
Muxing mode : DVD-Video
Menu
General
Complete name : /media/erzsebet/ASSAULT_THAT_ASS_12/VIDEO_TS/VTS_01_0.BUP
Format : DVD Video
Format profile : Program
File size : 128 KiB
Duration : 2 h 57 min
Overall bit rate mode : Variable
Overall bit rate : 99 b/s
FileExtension_Invalid : ifo
Video
ID : 224 (0xE0)
Format : MPEG Video
Format version : Version 2
Duration : 2 h 57 min
Bit rate mode : Variable
Width : 720 pixels
Height : 480 pixels
Display aspect ratio : 4:3
Frame rate : 29.970 (29970/1000) FPS
Standard : NTSC
Compression mode : Lossy
Audio #1
ID : 128 (0x80)
Format : AC-3
Format/Info : Audio Coding 3
Duration : 2 h 57 min
Channel(s) : 2 channels
Sampling rate : 48.0 kHz
Compression mode : Lossy
Language : English
Audio #2
Format : AC-3
Format/Info : Audio Coding 3
Duration : 2 h 57 min
Channel(s) : 6 channels
Sampling rate : 48.0 kHz
Compression mode : Lossy
Language : English
Audio #3
Format : AC-3
Format/Info : Audio Coding 3
Duration : 2 h 57 min
Channel(s) : 6 channels
Sampling rate : 48.0 kHz
Compression mode : Lossy
Language : English
Audio #4
Format : AC-3
Format/Info : Audio Coding 3
Duration : 2 h 57 min
Channel(s) : 6 channels
Sampling rate : 48.0 kHz
Compression mode : Lossy
Language : English
Audio #5
Format : AC-3
Format/Info : Audio Coding 3
Duration : 2 h 57 min
Channel(s) : 6 channels
Sampling rate : 48.0 kHz
Compression mode : Lossy
Language : English
Audio #6
Format : AC-3
Format/Info : Audio Coding 3
Duration : 2 h 57 min
Channel(s) : 6 channels
Sampling rate : 48.0 kHz
Compression mode : Lossy
Language : English
Audio #7
Format : AC-3
Format/Info : Audio Coding 3
Duration : 2 h 57 min
Channel(s) : 6 channels
Sampling rate : 48.0 kHz
Compression mode : Lossy
Language : English
Audio #8
Format : AC-3
Format/Info : Audio Coding 3
Duration : 2 h 57 min
Channel(s) : 6 channels
Sampling rate : 48.0 kHz
Compression mode : Lossy
Language : English
Text #1
Format : RLE
Format/Info : Run-length encoding
Bit depth : 2 bits
Text #2
Format : RLE
Format/Info : Run-length encoding
Bit depth : 2 bits
Text #3
Format : RLE
Format/Info : Run-length encoding
Bit depth : 2 bits
Text #4
Format : RLE
Format/Info : Run-length encoding
Bit depth : 2 bits
Text #5
Format : RLE
Format/Info : Run-length encoding
Bit depth : 2 bits
Text #6
Format : RLE
Format/Info : Run-length encoding
Bit depth : 2 bits
Text #7
Format : RLE
Format/Info : Run-length encoding
Bit depth : 2 bits
Text #8
Format : RLE
Format/Info : Run-length encoding
Bit depth : 2 bits
Text #9
Format : RLE
Format/Info : Run-length encoding
Bit depth : 2 bits
Text #10
Format : RLE
Format/Info : Run-length encoding
Bit depth : 2 bits
Text #11
Format : RLE
Format/Info : Run-length encoding
Bit depth : 2 bits
Text #12
Format : RLE
Format/Info : Run-length encoding
Bit depth : 2 bits
Text #13
Format : RLE
Format/Info : Run-length encoding
Bit depth : 2 bits
Text #14
Format : RLE
Format/Info : Run-length encoding
Bit depth : 2 bits
Text #15
Format : RLE
Format/Info : Run-length encoding
Bit depth : 2 bits
Text #16
Format : RLE
Format/Info : Run-length encoding
Bit depth : 2 bits
Text #17
Format : RLE
Format/Info : Run-length encoding
Bit depth : 2 bits
Text #18
Format : RLE
Format/Info : Run-length encoding
Bit depth : 2 bits
Text #19
Format : RLE
Format/Info : Run-length encoding
Bit depth : 2 bits
Text #20
Format : RLE
Format/Info : Run-length encoding
Bit depth : 2 bits
Text #21
Format : RLE
Format/Info : Run-length encoding
Bit depth : 2 bits
Text #22
Format : RLE
Format/Info : Run-length encoding
Bit depth : 2 bits
Text #23
Format : RLE
Format/Info : Run-length encoding
Bit depth : 2 bits
Text #24
Format : RLE
Format/Info : Run-length encoding
Bit depth : 2 bits
Text #25
Format : RLE
Format/Info : Run-length encoding
Bit depth : 2 bits
Text #26
Format : RLE
Format/Info : Run-length encoding
Bit depth : 2 bits
Text #27
Format : RLE
Format/Info : Run-length encoding
Bit depth : 2 bits
Text #28
Format : RLE
Format/Info : Run-length encoding
Bit depth : 2 bits
Text #29
Format : RLE
Format/Info : Run-length encoding
Bit depth : 2 bits
Text #30
Format : RLE
Format/Info : Run-length encoding
Bit depth : 2 bits
Text #31
Format : RLE
Format/Info : Run-length encoding
Bit depth : 2 bits
Text #32
Format : RLE
Format/Info : Run-length encoding
Bit depth : 2 bits
Menu #1
Duration : 2 h 57 min
00:00:00.000 : Chapter 1
00:01:16.733 : Chapter 2
00:05:48.233 : Chapter 3
00:08:10.233 : Chapter 4
00:15:32.733 : Chapter 5
00:18:23.733 : Chapter 6
00:21:47.733 : Chapter 7
00:26:09.233 : Chapter 8
00:32:57.233 : Chapter 9
00:34:37.166 : Chapter 10
00:35:43.666 : Chapter 11
00:39:37.666 : Chapter 12
00:46:48.666 : Chapter 13
00:55:10.166 : Chapter 14
01:01:32.099 : Chapter 15
01:07:17.499 : Chapter 16
01:09:40.999 : Chapter 17
01:10:36.365 : Chapter 18
01:16:27.365 : Chapter 19
01:20:04.365 : Chapter 20
01:22:32.298 : Chapter 21
01:28:40.298 : Chapter 22
01:34:07.798 : Chapter 23
01:44:04.631 : Chapter 24
01:45:08.631 : Chapter 25
01:50:24.631 : Chapter 26
01:56:20.131 : Chapter 27
01:58:01.131 : Chapter 28
02:05:40.131 : Chapter 29
02:12:51.531 : Chapter 30
02:15:39.031 : Chapter 31
02:16:44.031 : Chapter 32
02:22:07.531 : Chapter 33
02:27:29.431 : Chapter 34
02:30:22.931 : Chapter 35
02:34:58.431 : Chapter 36
02:42:24.731 : Chapter 37
02:46:58.231 : Chapter 38
02:53:19.997 : Chapter 39
02:54:11.497 : Chapter 40
02:55:28.997 : Chapter 41
02:57:04.497 : Chapter 42
List (Audio) : 0
Menu #2
Duration : 5 min 28 s
00:00:00.000 : Chapter 1
00:01:06.500 : Chapter 2
00:02:01.866 : Chapter 3
00:03:05.866 : Chapter 4
00:04:10.866 : Chapter 5
00:05:28.366 : Chapter 6
List (Audio) : 0
Menu #3
Duration : 1 min 7 s
00:00:00.000 : Chapter 1
00:01:06.500 : Chapter 2
List (Audio) : 0
Menu #4
Duration : 55 s 900 ms
00:00:00.000 : Chapter 1
00:00:55.366 : Chapter 2
List (Audio) : 0
Menu #5
Duration : 1 min 4 s
00:00:00.000 : Chapter 1
00:01:04.000 : Chapter 2
List (Audio) : 0
Menu #6
Duration : 1 min 5 s
00:00:00.000 : Chapter 1
00:01:05.000 : Chapter 2
List (Audio) : 0
Menu #7
Duration : 1 min 18 s
00:00:00.000 : Chapter 1
00:01:17.500 : Chapter 2
List (Audio) : 0
General
Complete name : /media/erzsebet/ASSAULT_THAT_ASS_12/VIDEO_TS/VTS_01_0.IFO
Format : DVD Video
Format profile : Program
File size : 128 KiB
Duration : 2 h 57 min
Overall bit rate mode : Variable
Overall bit rate : 99 b/s
Video
ID : 224 (0xE0)
Format : MPEG Video
Format version : Version 2
Duration : 2 h 57 min
Bit rate mode : Variable
Width : 720 pixels
Height : 480 pixels
Display aspect ratio : 4:3
Frame rate : 29.970 (29970/1000) FPS
Standard : NTSC
Compression mode : Lossy
Audio #1
ID : 128 (0x80)
Format : AC-3
Format/Info : Audio Coding 3
Duration : 2 h 57 min
Channel(s) : 2 channels
Sampling rate : 48.0 kHz
Compression mode : Lossy
Language : English
Audio #2
Format : AC-3
Format/Info : Audio Coding 3
Duration : 2 h 57 min
Channel(s) : 6 channels
Sampling rate : 48.0 kHz
Compression mode : Lossy
Language : English
Audio #3
Format : AC-3
Format/Info : Audio Coding 3
Duration : 2 h 57 min
Channel(s) : 6 channels
Sampling rate : 48.0 kHz
Compression mode : Lossy
Language : English
Audio #4
Format : AC-3
Format/Info : Audio Coding 3
Duration : 2 h 57 min
Channel(s) : 6 channels
Sampling rate : 48.0 kHz
Compression mode : Lossy
Language : English
Audio #5
Format : AC-3
Format/Info : Audio Coding 3
Duration : 2 h 57 min
Channel(s) : 6 channels
Sampling rate : 48.0 kHz
Compression mode : Lossy
Language : English
Audio #6
Format : AC-3
Format/Info : Audio Coding 3
Duration : 2 h 57 min
Channel(s) : 6 channels
Sampling rate : 48.0 kHz
Compression mode : Lossy
Language : English
Audio #7
Format : AC-3
Format/Info : Audio Coding 3
Duration : 2 h 57 min
Channel(s) : 6 channels
Sampling rate : 48.0 kHz
Compression mode : Lossy
Language : English
Audio #8
Format : AC-3
Format/Info : Audio Coding 3
Duration : 2 h 57 min
Channel(s) : 6 channels
Sampling rate : 48.0 kHz
Compression mode : Lossy
Language : English
Text #1
Format : RLE
Format/Info : Run-length encoding
Bit depth : 2 bits
Text #2
Format : RLE
Format/Info : Run-length encoding
Bit depth : 2 bits
Text #3
Format : RLE
Format/Info : Run-length encoding
Bit depth : 2 bits
Text #4
Format : RLE
Format/Info : Run-length encoding
Bit depth : 2 bits
Text #5
Format : RLE
Format/Info : Run-length encoding
Bit depth : 2 bits
Text #6
Format : RLE
Format/Info : Run-length encoding
Bit depth : 2 bits
Text #7
Format : RLE
Format/Info : Run-length encoding
Bit depth : 2 bits
Text #8
Format : RLE
Format/Info : Run-length encoding
Bit depth : 2 bits
Text #9
Format : RLE
Format/Info : Run-length encoding
Bit depth : 2 bits
Text #10
Format : RLE
Format/Info : Run-length encoding
Bit depth : 2 bits
Text #11
Format : RLE
Format/Info : Run-length encoding
Bit depth : 2 bits
Text #12
Format : RLE
Format/Info : Run-length encoding
Bit depth : 2 bits
Text #13
Format : RLE
Format/Info : Run-length encoding
Bit depth : 2 bits
Text #14
Format : RLE
Format/Info : Run-length encoding
Bit depth : 2 bits
Text #15
Format : RLE
Format/Info : Run-length encoding
Bit depth : 2 bits
Text #16
Format : RLE
Format/Info : Run-length encoding
Bit depth : 2 bits
Text #17
Format : RLE
Format/Info : Run-length encoding
Bit depth : 2 bits
Text #18
Format : RLE
Format/Info : Run-length encoding
Bit depth : 2 bits
Text #19
Format : RLE
Format/Info : Run-length encoding
Bit depth : 2 bits
Text #20
Format : RLE
Format/Info : Run-length encoding
Bit depth : 2 bits
Text #21
Format : RLE
Format/Info : Run-length encoding
Bit depth : 2 bits
Text #22
Format : RLE
Format/Info : Run-length encoding
Bit depth : 2 bits
Text #23
Format : RLE
Format/Info : Run-length encoding
Bit depth : 2 bits
Text #24
Format : RLE
Format/Info : Run-length encoding
Bit depth : 2 bits
Text #25
Format : RLE
Format/Info : Run-length encoding
Bit depth : 2 bits
Text #26
Format : RLE
Format/Info : Run-length encoding
Bit depth : 2 bits
Text #27
Format : RLE
Format/Info : Run-length encoding
Bit depth : 2 bits
Text #28
Format : RLE
Format/Info : Run-length encoding
Bit depth : 2 bits
Text #29
Format : RLE
Format/Info : Run-length encoding
Bit depth : 2 bits
Text #30
Format : RLE
Format/Info : Run-length encoding
Bit depth : 2 bits
Text #31
Format : RLE
Format/Info : Run-length encoding
Bit depth : 2 bits
Text #32
Format : RLE
Format/Info : Run-length encoding
Bit depth : 2 bits
Menu #1
Duration : 2 h 57 min
00:00:00.000 : Chapter 1
00:01:16.733 : Chapter 2
00:05:48.233 : Chapter 3
00:08:10.233 : Chapter 4
00:15:32.733 : Chapter 5
00:18:23.733 : Chapter 6
00:21:47.733 : Chapter 7
00:26:09.233 : Chapter 8
00:32:57.233 : Chapter 9
00:34:37.166 : Chapter 10
00:35:43.666 : Chapter 11
00:39:37.666 : Chapter 12
00:46:48.666 : Chapter 13
00:55:10.166 : Chapter 14
01:01:32.099 : Chapter 15
01:07:17.499 : Chapter 16
01:09:40.999 : Chapter 17
01:10:36.365 : Chapter 18
01:16:27.365 : Chapter 19
01:20:04.365 : Chapter 20
01:22:32.298 : Chapter 21
01:28:40.298 : Chapter 22
01:34:07.798 : Chapter 23
01:44:04.631 : Chapter 24
01:45:08.631 : Chapter 25
01:50:24.631 : Chapter 26
01:56:20.131 : Chapter 27
01:58:01.131 : Chapter 28
02:05:40.131 : Chapter 29
02:12:51.531 : Chapter 30
02:15:39.031 : Chapter 31
02:16:44.031 : Chapter 32
02:22:07.531 : Chapter 33
02:27:29.431 : Chapter 34
02:30:22.931 : Chapter 35
02:34:58.431 : Chapter 36
02:42:24.731 : Chapter 37
02:46:58.231 : Chapter 38
02:53:19.997 : Chapter 39
02:54:11.497 : Chapter 40
02:55:28.997 : Chapter 41
02:57:04.497 : Chapter 42
List (Audio) : 0
Menu #2
Duration : 5 min 28 s
00:00:00.000 : Chapter 1
00:01:06.500 : Chapter 2
00:02:01.866 : Chapter 3
00:03:05.866 : Chapter 4
00:04:10.866 : Chapter 5
00:05:28.366 : Chapter 6
List (Audio) : 0
Menu #3
Duration : 1 min 7 s
00:00:00.000 : Chapter 1
00:01:06.500 : Chapter 2
List (Audio) : 0
Menu #4
Duration : 55 s 900 ms
00:00:00.000 : Chapter 1
00:00:55.366 : Chapter 2
List (Audio) : 0
Menu #5
Duration : 1 min 4 s
00:00:00.000 : Chapter 1
00:01:04.000 : Chapter 2
List (Audio) : 0
Menu #6
Duration : 1 min 5 s
00:00:00.000 : Chapter 1
00:01:05.000 : Chapter 2
List (Audio) : 0
Menu #7
Duration : 1 min 18 s
00:00:00.000 : Chapter 1
00:01:17.500 : Chapter 2
List (Audio) : 0
General
Complete name : /media/erzsebet/ASSAULT_THAT_ASS_12/VIDEO_TS/VTS_01_0.VOB
Format : MPEG-PS
File size : 55.0 MiB
Duration : 29 s 984 ms
Overall bit rate : 15.4 Mb/s
Video
ID : 224 (0xE0)
Format : MPEG Video
Format version : Version 2
Format profile : [email protected]
Format settings : CustomMatrix / BVOP
Format settings, BVOP : Yes
Format settings, Matrix : Custom
Format settings, GOP : M=3, N=15
Format settings, picture structure : Frame
Duration : 29 s 997 ms
Bit rate mode : Constant
Bit rate : 14.9 Mb/s
Maximum bit rate : 5 000 kb/s
Width : 720 pixels
Height : 480 pixels
Display aspect ratio : 4:3
Frame rate : 29.970 (30000/1001) FPS
Standard : NTSC
Color space : YUV
Chroma subsampling : 4:2:0
Bit depth : 8 bits
Scan type : Interlaced
Scan order : Top Field First
Compression mode : Lossy
Bits/(Pixel*Frame) : 1.437
Time code of first frame : 01:00:06:14
Time code source : Group of pictures header
GOP, Open/Closed : Open
Stream size : 53.2 MiB (97%)
Audio
ID : 189 (0xBD)-128 (0x80)
Format : AC-3
Format/Info : Audio Coding 3
Commercial name : Dolby Digital
Muxing mode : DVD-Video
Duration : 29 s 984 ms
Bit rate mode : Constant
Bit rate : 192 kb/s
Channel(s) : 2 channels
Channel layout : L R
Sampling rate : 48.0 kHz
Frame rate : 31.250 FPS (1536 SPF)
Bit depth : 16 bits
Compression mode : Lossy
Delay relative to video : -66 ms
Stream size : 703 KiB (1%)
Service kind : Complete Main
Text
ID : 189 (0xBD)-32 (0x20)
Format : RLE
Format/Info : Run-length encoding
Muxing mode : DVD-Video
Delay relative to video : -66 ms
Menu
General
Complete name : /media/erzsebet/ASSAULT_THAT_ASS_12/VIDEO_TS/VTS_01_1.VOB
Format : MPEG-PS
File size : 1 024 MiB
Duration : 25 min 10 s
Overall bit rate mode : Variable
Overall bit rate : 5 687 kb/s
Video
ID : 224 (0xE0)
Format : MPEG Video
Format version : Version 2
Format profile : [email protected]
Format settings : CustomMatrix / BVOP
Format settings, BVOP : Yes
Format settings, Matrix : Custom
Format settings, GOP : M=3, N=15
Format settings, picture structure : Frame
Duration : 25 min 10 s
Bit rate mode : Variable
Bit rate : 5 382 kb/s
Maximum bit rate : 9 800 kb/s
Width : 720 pixels
Height : 480 pixels
Display aspect ratio : 4:3
Frame rate : 29.970 (30000/1001) FPS
Standard : NTSC
Color space : YUV
Chroma subsampling : 4:2:0
Bit depth : 8 bits
Scan type : Interlaced
Scan order : Top Field First
Compression mode : Lossy
Bits/(Pixel*Frame) : 0.520
Time code of first frame : 01:03:32;06
Time code source : Group of pictures header
GOP, Open/Closed : Closed
Stream size : 969 MiB (95%)
Audio
ID : 189 (0xBD)-128 (0x80)
Format : AC-3
Format/Info : Audio Coding 3
Commercial name : Dolby Digital
Muxing mode : DVD-Video
Duration : 25 min 9 s
Bit rate mode : Constant
Bit rate : 192 kb/s
Channel(s) : 2 channels
Channel layout : L R
Sampling rate : 48.0 kHz
Frame rate : 31.250 FPS (1536 SPF)
Bit depth : 16 bits
Compression mode : Lossy
Stream size : 34.6 MiB (3%)
Service kind : Complete Main
Menu
General
Complete name : /media/erzsebet/ASSAULT_THAT_ASS_12/VIDEO_TS/VTS_01_2.VOB
Format : MPEG-PS
File size : 1 024 MiB
Duration : 26 min 42 s
Overall bit rate mode : Variable
Overall bit rate : 5 360 kb/s
Video
ID : 224 (0xE0)
Format : MPEG Video
Format version : Version 2
Format profile : [email protected]
Format settings : CustomMatrix / BVOP
Format settings, BVOP : Yes
Format settings, Matrix : Custom
Format settings, GOP : M=3, N=15
Format settings, picture structure : Frame
Duration : 26 min 42 s
Bit rate mode : Variable
Bit rate : 5 061 kb/s
Maximum bit rate : 9 800 kb/s
Width : 720 pixels
Height : 480 pixels
Display aspect ratio : 4:3
Frame rate : 29.970 (30000/1001) FPS
Standard : NTSC
Color space : YUV
Chroma subsampling : 4:2:0
Bit depth : 8 bits
Scan type : Interlaced
Scan order : Top Field First
Compression mode : Lossy
Bits/(Pixel*Frame) : 0.489
Time code of first frame : 01:28:42;14
Time code source : Group of pictures header
GOP, Open/Closed : Closed
Stream size : 967 MiB (94%)
Audio
ID : 189 (0xBD)-128 (0x80)
Format : AC-3
Format/Info : Audio Coding 3
Commercial name : Dolby Digital
Muxing mode : DVD-Video
Duration : 26 min 42 s
Bit rate mode : Constant
Bit rate : 192 kb/s
Channel(s) : 2 channels
Channel layout : L R
Sampling rate : 48.0 kHz
Frame rate : 31.250 FPS (1536 SPF)
Bit depth : 16 bits
Compression mode : Lossy
Delay relative to video : -418 ms
Stream size : 36.7 MiB (4%)
Service kind : Complete Main
Menu
General
Complete name : /media/erzsebet/ASSAULT_THAT_ASS_12/VIDEO_TS/VTS_01_3.VOB
Format : MPEG-PS
File size : 1 024 MiB
Duration : 27 min 35 s
Overall bit rate mode : Variable
Overall bit rate : 5 187 kb/s
Video
ID : 224 (0xE0)
Format : MPEG Video
Format version : Version 2
Format profile : [email protected]
Format settings : CustomMatrix / BVOP
Format settings, BVOP : Yes
Format settings, Matrix : Custom
Format settings, GOP : M=3, N=15
Format settings, picture structure : Frame
Duration : 27 min 35 s
Bit rate mode : Variable
Bit rate : 4 891 kb/s
Maximum bit rate : 9 800 kb/s
Width : 720 pixels
Height : 480 pixels
Display aspect ratio : 4:3
Frame rate : 29.970 (30000/1001) FPS
Standard : NTSC
Color space : YUV
Chroma subsampling : 4:2:0
Bit depth : 8 bits
Scan type : Interlaced
Scan order : Top Field First
Compression mode : Lossy
Bits/(Pixel*Frame) : 0.472
Time code of first frame : 01:55:25;00
Time code source : Group of pictures header
GOP, Open/Closed : Closed
Stream size : 965 MiB (94%)
Audio
ID : 189 (0xBD)-128 (0x80)
Format : AC-3
Format/Info : Audio Coding 3
Commercial name : Dolby Digital
Muxing mode : DVD-Video
Duration : 27 min 35 s
Bit rate mode : Constant
Bit rate : 192 kb/s
Channel(s) : 2 channels
Channel layout : L R
Sampling rate : 48.0 kHz
Frame rate : 31.250 FPS (1536 SPF)
Bit depth : 16 bits
Compression mode : Lossy
Delay relative to video : -489 ms
Stream size : 37.9 MiB (4%)
Service kind : Complete Main
Menu
General
Complete name : /media/erzsebet/ASSAULT_THAT_ASS_12/VIDEO_TS/VTS_01_4.VOB
Format : MPEG-PS
File size : 1 024 MiB
Duration : 26 min 2 s
Overall bit rate mode : Variable
Overall bit rate : 5 498 kb/s
Video
ID : 224 (0xE0)
Format : MPEG Video
Format version : Version 2
Format profile : [email protected]
Format settings : CustomMatrix / BVOP
Format settings, BVOP : Yes
Format settings, Matrix : Custom
Format settings, GOP : M=3, N=15
Format settings, picture structure : Frame
Duration : 26 min 1 s
Bit rate mode : Variable
Bit rate : 5 196 kb/s
Maximum bit rate : 9 800 kb/s
Width : 720 pixels
Height : 480 pixels
Display aspect ratio : 4:3
Frame rate : 29.970 (30000/1001) FPS
Standard : NTSC
Color space : YUV
Chroma subsampling : 4:2:0
Bit depth : 8 bits
Scan type : Interlaced
Scan order : Top Field First
Compression mode : Lossy
Bits/(Pixel*Frame) : 0.502
Time code of first frame : 02:23:00;26
Time code source : Group of pictures header
GOP, Open/Closed : Closed
Stream size : 968 MiB (95%)
Audio
ID : 189 (0xBD)-128 (0x80)
Format : AC-3
Format/Info : Audio Coding 3
Commercial name : Dolby Digital
Muxing mode : DVD-Video
Duration : 26 min 2 s
Bit rate mode : Constant
Bit rate : 192 kb/s
Channel(s) : 2 channels
Channel layout : L R
Sampling rate : 48.0 kHz
Frame rate : 31.250 FPS (1536 SPF)
Bit depth : 16 bits
Compression mode : Lossy
Delay relative to video : -439 ms
Stream size : 35.8 MiB (3%)
Service kind : Complete Main
Menu
General
Complete name : /media/erzsebet/ASSAULT_THAT_ASS_12/VIDEO_TS/VTS_01_5.VOB
Format : MPEG-PS
File size : 1 024 MiB
Duration : 25 min 54 s
Overall bit rate mode : Variable
Overall bit rate : 5 525 kb/s
Video
ID : 224 (0xE0)
Format : MPEG Video
Format version : Version 2
Format profile : [email protected]
Format settings : CustomMatrix / BVOP
Format settings, BVOP : Yes
Format settings, Matrix : Custom
Format settings, GOP : M=3, N=15
Format settings, picture structure : Frame
Duration : 25 min 54 s
Bit rate mode : Variable
Bit rate : 5 223 kb/s
Maximum bit rate : 9 800 kb/s
Width : 720 pixels
Height : 480 pixels
Display aspect ratio : 4:3
Frame rate : 29.970 (30000/1001) FPS
Standard : NTSC
Color space : YUV
Chroma subsampling : 4:2:0
Bit depth : 8 bits
Scan type : Interlaced
Scan order : Top Field First
Compression mode : Lossy
Bits/(Pixel*Frame) : 0.504
Time code of first frame : 02:49:03;07
Time code source : Group of pictures header
GOP, Open/Closed : Closed
Stream size : 968 MiB (95%)
Audio
ID : 189 (0xBD)-128 (0x80)
Format : AC-3
Format/Info : Audio Coding 3
Commercial name : Dolby Digital
Muxing mode : DVD-Video
Duration : 25 min 54 s
Bit rate mode : Constant
Bit rate : 192 kb/s
Channel(s) : 2 channels
Channel layout : L R
Sampling rate : 48.0 kHz
Frame rate : 31.250 FPS (1536 SPF)
Bit depth : 16 bits
Compression mode : Lossy
Delay relative to video : -526 ms
Stream size : 35.6 MiB (3%)
Service kind : Complete Main
Menu
General
Complete name : /media/erzsebet/ASSAULT_THAT_ASS_12/VIDEO_TS/VTS_01_6.VOB
Format : MPEG-PS
File size : 1 024 MiB
Duration : 27 min 2 s
Overall bit rate mode : Variable
Overall bit rate : 5 293 kb/s
Video
ID : 224 (0xE0)
Format : MPEG Video
Format version : Version 2
Format profile : [email protected]
Format settings : CustomMatrix / BVOP
Format settings, BVOP : Yes
Format settings, Matrix : Custom
Format settings, GOP : M=3, N=15
Format settings, picture structure : Frame
Duration : 27 min 2 s
Bit rate mode : Variable
Bit rate : 4 996 kb/s
Maximum bit rate : 9 800 kb/s
Width : 720 pixels
Height : 480 pixels
Display aspect ratio : 4:3
Frame rate : 29.970 (30000/1001) FPS
Standard : NTSC
Color space : YUV
Chroma subsampling : 4:2:0
Bit depth : 8 bits
Scan type : Interlaced
Scan order : Top Field First
Compression mode : Lossy
Bits/(Pixel*Frame) : 0.482
Time code of first frame : 03:14:57;18
Time code source : Group of pictures header
GOP, Open/Closed : Closed
Stream size : 966 MiB (94%)
Audio
ID : 189 (0xBD)-128 (0x80)
Format : AC-3
Format/Info : Audio Coding 3
Commercial name : Dolby Digital
Muxing mode : DVD-Video
Duration : 27 min 2 s
Bit rate mode : Constant
Bit rate : 192 kb/s
Channel(s) : 2 channels
Channel layout : L R
Sampling rate : 48.0 kHz
Frame rate : 31.250 FPS (1536 SPF)
Bit depth : 16 bits
Compression mode : Lossy
Delay relative to video : -387 ms
Stream size : 37.1 MiB (4%)
Service kind : Complete Main
Menu
General
Complete name : /media/erzsebet/ASSAULT_THAT_ASS_12/VIDEO_TS/VTS_01_7.VOB
Format : MPEG-PS
File size : 722 MiB
Duration : 18 min 47 s
Overall bit rate mode : Variable
Overall bit rate : 5 373 kb/s
Video
ID : 224 (0xE0)
Format : MPEG Video
Format version : Version 2
Format profile : [email protected]
Format settings : CustomMatrix / BVOP
Format settings, BVOP : Yes
Format settings, Matrix : Custom
Format settings, GOP : Variable
Format settings, picture structure : Frame
Duration : 18 min 47 s
Bit rate mode : Variable
Bit rate : 5 074 kb/s
Maximum bit rate : 9 800 kb/s
Width : 720 pixels
Height : 480 pixels
Display aspect ratio : 4:3
Frame rate : 29.970 (30000/1001) FPS
Standard : NTSC
Color space : YUV
Chroma subsampling : 4:2:0
Bit depth : 8 bits
Scan type : Interlaced
Scan order : Top Field First
Compression mode : Lossy
Bits/(Pixel*Frame) : 0.490
Time code of first frame : 03:42:00;14
Time code source : Group of pictures header
GOP, Open/Closed : Closed
Stream size : 682 MiB (94%)
Audio
ID : 189 (0xBD)-128 (0x80)
Format : AC-3
Format/Info : Audio Coding 3
Commercial name : Dolby Digital
Muxing mode : DVD-Video
Duration : 18 min 47 s
Bit rate mode : Constant
Bit rate : 192 kb/s
Channel(s) : 2 channels
Channel layout : L R
Sampling rate : 48.0 kHz
Frame rate : 31.250 FPS (1536 SPF)
Bit depth : 16 bits
Compression mode : Lossy
Delay relative to video : -520 ms
Stream size : 25.8 MiB (4%)
Service kind : Complete Main
Menu
General
Complete name : /media/erzsebet/ASSAULT_THAT_ASS_12/VIDEO_TS/VTS_02_0.BUP
Format : DVD Video
Format profile : Program
File size : 18.0 KiB
Duration : 1 s 66 ms
Overall bit rate mode : Variable
Overall bit rate : 138 kb/s
FileExtension_Invalid : ifo
Video
ID : 224 (0xE0)
Format : MPEG Video
Format version : Version 2
Duration : 1 s 68 ms
Bit rate mode : Variable
Bit rate : 126 kb/s
Width : 720 pixels
Height : 480 pixels
Display aspect ratio : 4:3
Frame rate : 29.970 (29970/1000) FPS
Standard : NTSC
Compression mode : Lossy
Bits/(Pixel*Frame) : 0.012
Stream size : 16.4 KiB (91%)
Menu
Duration : 1 s 66 ms
00:00:00.000 : Chapter 1
00:00:00.500 : Chapter 2
General
Complete name : /media/erzsebet/ASSAULT_THAT_ASS_12/VIDEO_TS/VTS_02_0.IFO
Format : DVD Video
Format profile : Program
File size : 18.0 KiB
Duration : 1 s 66 ms
Overall bit rate mode : Variable
Overall bit rate : 138 kb/s
Video
ID : 224 (0xE0)
Format : MPEG Video
Format version : Version 2
Duration : 1 s 68 ms
Bit rate mode : Variable
Bit rate : 126 kb/s
Width : 720 pixels
Height : 480 pixels
Display aspect ratio : 4:3
Frame rate : 29.970 (29970/1000) FPS
Standard : NTSC
Compression mode : Lossy
Bits/(Pixel*Frame) : 0.012
Stream size : 16.4 KiB (91%)
Menu
Duration : 1 s 66 ms
00:00:00.000 : Chapter 1
00:00:00.500 : Chapter 2
General
Complete name : /media/erzsebet/ASSAULT_THAT_ASS_12/VIDEO_TS/VTS_02_0.VOB
Format : MPEG-PS
File size : 114 KiB
Duration : 467 ms
Overall bit rate : 2 000 kb/s
Video
ID : 224 (0xE0)
Format : MPEG Video
Format version : Version 2
Format profile : [email protected]
Format settings : CustomMatrix / BVOP
Format settings, BVOP : Yes
Format settings, Matrix : Custom
Format settings, picture structure : Frame
Duration : 467 ms
Bit rate mode : Constant
Maximum bit rate : 2 000 kb/s
Width : 720 pixels
Height : 480 pixels
Display aspect ratio : 4:3
Frame rate : 29.970 (30000/1001) FPS
Standard : NTSC
Color space : YUV
Chroma subsampling : 4:2:0
Bit depth : 8 bits
Scan type : Interlaced
Scan order : Top Field First
Compression mode : Lossy
Time code of first frame : 00:00:00:01
Time code source : Group of pictures header
Text
ID : 189 (0xBD)-32 (0x20)
Format : RLE
Format/Info : Run-length encoding
Muxing mode : DVD-Video
Menu
General
Complete name : /media/erzsebet/ASSAULT_THAT_ASS_12/VIDEO_TS/VTS_02_1.VOB
Format : MPEG-PS
File size : 904 KiB
Duration : 1 s 68 ms
Overall bit rate mode : Constant
Overall bit rate : 6 934 kb/s
Video
ID : 224 (0xE0)
Format : MPEG Video
Format version : Version 2
Format profile : [email protected]
Format settings : CustomMatrix / BVOP
Format settings, BVOP : Yes
Format settings, Matrix : Custom
Format settings, picture structure : Frame
Duration : 1 s 68 ms
Bit rate mode : Constant
Bit rate : 6 796 kb/s
Maximum bit rate : 7 000 kb/s
Width : 720 pixels
Height : 480 pixels
Display aspect ratio : 4:3
Frame rate : 29.970 (30000/1001) FPS
Standard : NTSC
Color space : YUV
Chroma subsampling : 4:2:0
Bit depth : 8 bits
Scan type : Interlaced
Scan order : Top Field First
Compression mode : Lossy
Bits/(Pixel*Frame) : 0.656
Time code of first frame : 00:59:49;00
Time code source : Group of pictures header
Stream size : 886 KiB (98%)
Menu
General
Complete name : /media/erzsebet/ASSAULT_THAT_ASS_12/VIDEO_TS/VTS_03_0.BUP
Format : DVD Video
Format profile : Program
File size : 18.0 KiB
Duration : 1 s 66 ms
Overall bit rate mode : Variable
Overall bit rate : 138 kb/s
FileExtension_Invalid : ifo
Video
ID : 224 (0xE0)
Format : MPEG Video
Format version : Version 2
Duration : 1 s 68 ms
Bit rate mode : Variable
Bit rate : 126 kb/s
Width : 720 pixels
Height : 480 pixels
Display aspect ratio : 4:3
Frame rate : 29.970 (29970/1000) FPS
Standard : NTSC
Compression mode : Lossy
Bits/(Pixel*Frame) : 0.012
Stream size : 16.4 KiB (91%)
Menu
Duration : 1 s 66 ms
00:00:00.000 : Chapter 1
General
Complete name : /media/erzsebet/ASSAULT_THAT_ASS_12/VIDEO_TS/VTS_03_0.IFO
Format : DVD Video
Format profile : Program
File size : 18.0 KiB
Duration : 1 s 66 ms
Overall bit rate mode : Variable
Overall bit rate : 138 kb/s
Video
ID : 224 (0xE0)
Format : MPEG Video
Format version : Version 2
Duration : 1 s 68 ms
Bit rate mode : Variable
Bit rate : 126 kb/s
Width : 720 pixels
Height : 480 pixels
Display aspect ratio : 4:3
Frame rate : 29.970 (29970/1000) FPS
Standard : NTSC
Compression mode : Lossy
Bits/(Pixel*Frame) : 0.012
Stream size : 16.4 KiB (91%)
Menu
Duration : 1 s 66 ms
00:00:00.000 : Chapter 1
General
Complete name : /media/erzsebet/ASSAULT_THAT_ASS_12/VIDEO_TS/VTS_03_0.VOB
Format : MPEG-PS
File size : 114 KiB
Duration : 467 ms
Overall bit rate : 2 000 kb/s
Video
ID : 224 (0xE0)
Format : MPEG Video
Format version : Version 2
Format profile : [email protected]
Format settings : CustomMatrix / BVOP
Format settings, BVOP : Yes
Format settings, Matrix : Custom
Format settings, picture structure : Frame
Duration : 467 ms
Bit rate mode : Constant
Maximum bit rate : 2 000 kb/s
Width : 720 pixels
Height : 480 pixels
Display aspect ratio : 4:3
Frame rate : 29.970 (30000/1001) FPS
Standard : NTSC
Color space : YUV
Chroma subsampling : 4:2:0
Bit depth : 8 bits
Scan type : Interlaced
Scan order : Top Field First
Compression mode : Lossy
Time code of first frame : 00:00:00:01
Time code source : Group of pictures header
Text
ID : 189 (0xBD)-32 (0x20)
Format : RLE
Format/Info : Run-length encoding
Muxing mode : DVD-Video
Menu
General
Complete name : /media/erzsebet/ASSAULT_THAT_ASS_12/VIDEO_TS/VTS_03_1.VOB
Format : MPEG-PS
File size : 904 KiB
Duration : 1 s 68 ms
Overall bit rate mode : Constant
Overall bit rate : 6 934 kb/s
Video
ID : 224 (0xE0)
Format : MPEG Video
Format version : Version 2
Format profile : [email protected]
Format settings : CustomMatrix / BVOP
Format settings, BVOP : Yes
Format settings, Matrix : Custom
Format settings, picture structure : Frame
Duration : 1 s 68 ms
Bit rate mode : Constant
Bit rate : 6 796 kb/s
Maximum bit rate : 7 000 kb/s
Width : 720 pixels
Height : 480 pixels
Display aspect ratio : 4:3
Frame rate : 29.970 (30000/1001) FPS
Standard : NTSC
Color space : YUV
Chroma subsampling : 4:2:0
Bit depth : 8 bits
Scan type : Interlaced
Scan order : Top Field First
Compression mode : Lossy
Bits/(Pixel*Frame) : 0.656
Time code of first frame : 00:59:49;00
Time code source : Group of pictures header
Stream size : 886 KiB (98%)
Menu
General
Complete name : /media/erzsebet/ASSAULT_THAT_ASS_12/VIDEO_TS/VTS_04_0.BUP
Format : DVD Video
Format profile : Program
File size : 18.0 KiB
Duration : 1 min 1 s
Overall bit rate mode : Variable
Overall bit rate : 2 416 b/s
FileExtension_Invalid : ifo
Video
ID : 224 (0xE0)
Format : MPEG Video
Format version : Version 2
Duration : 1 min 1 s
Bit rate mode : Variable
Width : 720 pixels
Height : 480 pixels
Display aspect ratio : 4:3
Frame rate : 29.970 (29970/1000) FPS
Standard : NTSC
Compression mode : Lossy
Menu
Duration : 1 min 1 s
00:00:00.000 : Chapter 1
00:00:30.000 : Chapter 2
00:01:00.500 : Chapter 3
General
Complete name : /media/erzsebet/ASSAULT_THAT_ASS_12/VIDEO_TS/VTS_04_0.IFO
Format : DVD Video
Format profile : Program
File size : 18.0 KiB
Duration : 1 min 1 s
Overall bit rate mode : Variable
Overall bit rate : 2 416 b/s
Video
ID : 224 (0xE0)
Format : MPEG Video
Format version : Version 2
Duration : 1 min 1 s
Bit rate mode : Variable
Width : 720 pixels
Height : 480 pixels
Display aspect ratio : 4:3
Frame rate : 29.970 (29970/1000) FPS
Standard : NTSC
Compression mode : Lossy
Menu
Duration : 1 min 1 s
00:00:00.000 : Chapter 1
00:00:30.000 : Chapter 2
00:01:00.500 : Chapter 3
General
Complete name : /media/erzsebet/ASSAULT_THAT_ASS_12/VIDEO_TS/VTS_04_0.VOB
Format : MPEG-PS
File size : 114 KiB
Duration : 467 ms
Overall bit rate : 2 000 kb/s
Video
ID : 224 (0xE0)
Format : MPEG Video
Format version : Version 2
Format profile : [email protected]
Format settings : CustomMatrix / BVOP
Format settings, BVOP : Yes
Format settings, Matrix : Custom
Format settings, picture structure : Frame
Duration : 467 ms
Bit rate mode : Constant
Maximum bit rate : 2 000 kb/s
Width : 720 pixels
Height : 480 pixels
Display aspect ratio : 4:3
Frame rate : 29.970 (30000/1001) FPS
Standard : NTSC
Color space : YUV
Chroma subsampling : 4:2:0
Bit depth : 8 bits
Scan type : Interlaced
Scan order : Top Field First
Compression mode : Lossy
Time code of first frame : 00:00:00:01
Time code source : Group of pictures header
Text
ID : 189 (0xBD)-32 (0x20)
Format : RLE
Format/Info : Run-length encoding
Muxing mode : DVD-Video
Menu
General
Complete name : /media/erzsebet/ASSAULT_THAT_ASS_12/VIDEO_TS/VTS_04_1.VOB
Format : MPEG-PS
File size : 27.6 MiB
Duration : 1 min 1 s
Overall bit rate mode : Constant
Overall bit rate : 3 790 kb/s
Video
ID : 224 (0xE0)
Format : MPEG Video
Format version : Version 2
Format profile : [email protected]
Format settings : CustomMatrix / BVOP
Format settings, BVOP : Yes
Format settings, Matrix : Custom
Format settings, GOP : M=3, N=15
Format settings, picture structure : Frame
Duration : 1 min 1 s
Bit rate mode : Constant
Bit rate : 3 714 kb/s
Maximum bit rate : 5 000 kb/s
Width : 720 pixels
Height : 480 pixels
Display aspect ratio : 4:3
Frame rate : 29.970 (30000/1001) FPS
Standard : NTSC
Color space : YUV
Chroma subsampling : 4:2:0
Bit depth : 8 bits
Scan type : Interlaced
Scan order : Top Field First
Compression mode : Lossy
Bits/(Pixel*Frame) : 0.359
Time code of first frame : 01:00:00:00
Time code source : Group of pictures header
GOP, Open/Closed : Open
GOP, Open/Closed of first frame : Closed
Stream size : 27.0 MiB (98%)
Menu
General
Complete name : /media/erzsebet/ASSAULT_THAT_ASS_12/VIDEO_TS/VTS_05_0.BUP
Format : DVD Video
Format profile : Program
File size : 18.0 KiB
Duration : 19 s 33 ms
Overall bit rate mode : Variable
Overall bit rate : 7 747 b/s
FileExtension_Invalid : ifo
Video
ID : 224 (0xE0)
Format : MPEG Video
Format version : Version 2
Duration : 19 s 19 ms
Bit rate mode : Variable
Width : 720 pixels
Height : 480 pixels
Display aspect ratio : 4:3
Frame rate : 29.970 (29970/1000) FPS
Standard : NTSC
Compression mode : Lossy
Menu
Duration : 19 s 33 ms
00:00:00.000 : Chapter 1
00:00:18.500 : Chapter 2
General
Complete name : /media/erzsebet/ASSAULT_THAT_ASS_12/VIDEO_TS/VTS_05_0.IFO
Format : DVD Video
Format profile : Program
File size : 18.0 KiB
Duration : 19 s 33 ms
Overall bit rate mode : Variable
Overall bit rate : 7 747 b/s
Video
ID : 224 (0xE0)
Format : MPEG Video
Format version : Version 2
Duration : 19 s 19 ms
Bit rate mode : Variable
Width : 720 pixels
Height : 480 pixels
Display aspect ratio : 4:3
Frame rate : 29.970 (29970/1000) FPS
Standard : NTSC
Compression mode : Lossy
Menu
Duration : 19 s 33 ms
00:00:00.000 : Chapter 1
00:00:18.500 : Chapter 2
General
Complete name : /media/erzsebet/ASSAULT_THAT_ASS_12/VIDEO_TS/VTS_05_0.VOB
Format : MPEG-PS
File size : 114 KiB
Duration : 467 ms
Overall bit rate : 2 000 kb/s
Video
ID : 224 (0xE0)
Format : MPEG Video
Format version : Version 2
Format profile : [email protected]
Format settings : CustomMatrix / BVOP
Format settings, BVOP : Yes
Format settings, Matrix : Custom
Format settings, picture structure : Frame
Duration : 467 ms
Bit rate mode : Constant
Maximum bit rate : 2 000 kb/s
Width : 720 pixels
Height : 480 pixels
Display aspect ratio : 4:3
Frame rate : 29.970 (30000/1001) FPS
Standard : NTSC
Color space : YUV
Chroma subsampling : 4:2:0
Bit depth : 8 bits
Scan type : Interlaced
Scan order : Top Field First
Compression mode : Lossy
Time code of first frame : 00:00:00:01
Time code source : Group of pictures header
Text
ID : 189 (0xBD)-32 (0x20)
Format : RLE
Format/Info : Run-length encoding
Muxing mode : DVD-Video
Menu
General
Complete name : /media/erzsebet/ASSAULT_THAT_ASS_12/VIDEO_TS/VTS_05_1.VOB
Format : MPEG-PS
File size : 5.39 MiB
Duration : 19 s 19 ms
Overall bit rate mode : Variable
Overall bit rate : 2 377 kb/s
Video
ID : 224 (0xE0)
Format : MPEG Video
Format version : Version 2
Format profile : [email protected]
Format settings : CustomMatrix / BVOP
Format settings, BVOP : Yes
Format settings, Matrix : Custom
Format settings, GOP : M=3, N=15
Format settings, picture structure : Frame
Duration : 19 s 19 ms
Bit rate mode : Variable
Bit rate : 2 329 kb/s
Maximum bit rate : 9 800 kb/s
Width : 720 pixels
Height : 480 pixels
Display aspect ratio : 4:3
Frame rate : 29.970 (30000/1001) FPS
Standard : NTSC
Color space : YUV
Chroma subsampling : 4:2:0
Bit depth : 8 bits
Scan type : Interlaced
Scan order : Top Field First
Compression mode : Lossy
Bits/(Pixel*Frame) : 0.225
Time code of first frame : 01:00:00:00
Time code source : Group of pictures header
GOP, Open/Closed : Open
GOP, Open/Closed of first frame : Closed
Stream size : 5.28 MiB (98%)
Menu
General
Complete name : /media/erzsebet/ASSAULT_THAT_ASS_12/VIDEO_TS/VTS_06_0.BUP
Format : DVD Video
Format profile : Program
File size : 24.0 KiB
Duration : 11 min 8 s
Overall bit rate mode : Variable
Overall bit rate : 294 b/s
FileExtension_Invalid : ifo
Video
ID : 224 (0xE0)
Format : MPEG Video
Format version : Version 2
Duration : 11 min 8 s
Bit rate mode : Variable
Width : 720 pixels
Height : 480 pixels
Display aspect ratio : 4:3
Frame rate : 29.970 (29970/1000) FPS
Standard : NTSC
Compression mode : Lossy
Audio
ID : 128 (0x80)
Format : AC-3
Format/Info : Audio Coding 3
Duration : 11 min 8 s
Channel(s) : 2 channels
Sampling rate : 48.0 kHz
Compression mode : Lossy
Language : English
Menu
Duration : 11 min 8 s
00:00:00.000 : Chapter 1
00:11:07.466 : Chapter 2
List (Audio) : 0
General
Complete name : /media/erzsebet/ASSAULT_THAT_ASS_12/VIDEO_TS/VTS_06_0.IFO
Format : DVD Video
Format profile : Program
File size : 24.0 KiB
Duration : 11 min 8 s
Overall bit rate mode : Variable
Overall bit rate : 294 b/s
Video
ID : 224 (0xE0)
Format : MPEG Video
Format version : Version 2
Duration : 11 min 8 s
Bit rate mode : Variable
Width : 720 pixels
Height : 480 pixels
Display aspect ratio : 4:3
Frame rate : 29.970 (29970/1000) FPS
Standard : NTSC
Compression mode : Lossy
Audio
ID : 128 (0x80)
Format : AC-3
Format/Info : Audio Coding 3
Duration : 11 min 8 s
Channel(s) : 2 channels
Sampling rate : 48.0 kHz
Compression mode : Lossy
Language : English
Menu
Duration : 11 min 8 s
00:00:00.000 : Chapter 1
00:11:07.466 : Chapter 2
List (Audio) : 0
General
Complete name : /media/erzsebet/ASSAULT_THAT_ASS_12/VIDEO_TS/VTS_06_0.VOB
Format : MPEG-PS
File size : 114 KiB
Duration : 467 ms
Overall bit rate : 2 000 kb/s
Video
ID : 224 (0xE0)
Format : MPEG Video
Format version : Version 2
Format profile : [email protected]
Format settings : CustomMatrix / BVOP
Format settings, BVOP : Yes
Format settings, Matrix : Custom
Format settings, picture structure : Frame
Duration : 467 ms
Bit rate mode : Constant
Maximum bit rate : 2 000 kb/s
Width : 720 pixels
Height : 480 pixels
Display aspect ratio : 4:3
Frame rate : 29.970 (30000/1001) FPS
Standard : NTSC
Color space : YUV
Chroma subsampling : 4:2:0
Bit depth : 8 bits
Scan type : Interlaced
Scan order : Top Field First
Compression mode : Lossy
Time code of first frame : 00:00:00:01
Time code source : Group of pictures header
Text
ID : 189 (0xBD)-32 (0x20)
Format : RLE
Format/Info : Run-length encoding
Muxing mode : DVD-Video
Menu
General
Complete name : /media/erzsebet/ASSAULT_THAT_ASS_12/VIDEO_TS/VTS_06_1.VOB
Format : MPEG-PS
File size : 157 MiB
Duration : 11 min 8 s
Overall bit rate mode : Variable
Overall bit rate : 1 965 kb/s
Video
ID : 224 (0xE0)
Format : MPEG Video
Format version : Version 2
Format profile : [email protected]
Format settings : CustomMatrix / BVOP
Format settings, BVOP : Yes
Format settings, Matrix : Custom
Format settings, GOP : Variable
Format settings, picture structure : Frame
Duration : 11 min 8 s
Bit rate mode : Variable
Bit rate : 1 734 kb/s
Maximum bit rate : 9 800 kb/s
Width : 720 pixels
Height : 480 pixels
Display aspect ratio : 4:3
Frame rate : 29.970 (30000/1001) FPS
Standard : NTSC
Color space : YUV
Chroma subsampling : 4:2:0
Bit depth : 8 bits
Scan type : Interlaced
Scan order : Top Field First
Compression mode : Lossy
Bits/(Pixel*Frame) : 0.167
Time code of first frame : 01:00:00:00
Time code source : Group of pictures header
GOP, Open/Closed : Open
GOP, Open/Closed of first frame : Closed
Stream size : 138 MiB (88%)
Audio
ID : 189 (0xBD)-128 (0x80)
Format : AC-3
Format/Info : Audio Coding 3
Commercial name : Dolby Digital
Muxing mode : DVD-Video
Duration : 11 min 6 s
Bit rate mode : Constant
Bit rate : 192 kb/s
Channel(s) : 2 channels
Channel layout : L R
Sampling rate : 48.0 kHz
Frame rate : 31.250 FPS (1536 SPF)
Bit depth : 16 bits
Compression mode : Lossy
Stream size : 15.3 MiB (10%)
Service kind : Complete Main
Menu
General
Complete name : /media/erzsebet/ASSAULT_THAT_ASS_12/VIDEO_TS/VTS_07_0.BUP
Format : DVD Video
Format profile : Program
File size : 24.0 KiB
Duration : 12 min 19 s
Overall bit rate mode : Variable
Overall bit rate : 266 b/s
FileExtension_Invalid : ifo
Video
ID : 224 (0xE0)
Format : MPEG Video
Format version : Version 2
Duration : 12 min 19 s
Bit rate mode : Variable
Width : 720 pixels
Height : 480 pixels
Display aspect ratio : 4:3
Frame rate : 29.970 (29970/1000) FPS
Standard : NTSC
Compression mode : Lossy
Audio
ID : 128 (0x80)
Format : AC-3
Format/Info : Audio Coding 3
Duration : 12 min 19 s
Channel(s) : 2 channels
Sampling rate : 48.0 kHz
Compression mode : Lossy
Language : English
Menu
Duration : 12 min 19 s
00:00:00.000 : Chapter 1
00:01:24.333 : Chapter 2
00:05:43.699 : Chapter 3
00:07:24.665 : Chapter 4
00:08:50.531 : Chapter 5
00:12:18.864 : Chapter 6
List (Audio) : 0
General
Complete name : /media/erzsebet/ASSAULT_THAT_ASS_12/VIDEO_TS/VTS_07_0.IFO
Format : DVD Video
Format profile : Program
File size : 24.0 KiB
Duration : 12 min 19 s
Overall bit rate mode : Variable
Overall bit rate : 266 b/s
Video
ID : 224 (0xE0)
Format : MPEG Video
Format version : Version 2
Duration : 12 min 19 s
Bit rate mode : Variable
Width : 720 pixels
Height : 480 pixels
Display aspect ratio : 4:3
Frame rate : 29.970 (29970/1000) FPS
Standard : NTSC
Compression mode : Lossy
Audio
ID : 128 (0x80)
Format : AC-3
Format/Info : Audio Coding 3
Duration : 12 min 19 s
Channel(s) : 2 channels
Sampling rate : 48.0 kHz
Compression mode : Lossy
Language : English
Menu
Duration : 12 min 19 s
00:00:00.000 : Chapter 1
00:01:24.333 : Chapter 2
00:05:43.699 : Chapter 3
00:07:24.665 : Chapter 4
00:08:50.531 : Chapter 5
00:12:18.864 : Chapter 6
List (Audio) : 0
General
Complete name : /media/erzsebet/ASSAULT_THAT_ASS_12/VIDEO_TS/VTS_07_0.VOB
Format : MPEG-PS
File size : 114 KiB
Duration : 467 ms
Overall bit rate : 2 000 kb/s
Video
ID : 224 (0xE0)
Format : MPEG Video
Format version : Version 2
Format profile : [email protected]
Format settings : CustomMatrix / BVOP
Format settings, BVOP : Yes
Format settings, Matrix : Custom
Format settings, picture structure : Frame
Duration : 467 ms
Bit rate mode : Constant
Maximum bit rate : 2 000 kb/s
Width : 720 pixels
Height : 480 pixels
Display aspect ratio : 4:3
Frame rate : 29.970 (30000/1001) FPS
Standard : NTSC
Color space : YUV
Chroma subsampling : 4:2:0
Bit depth : 8 bits
Scan type : Interlaced
Scan order : Top Field First
Compression mode : Lossy
Time code of first frame : 00:00:00:01
Time code source : Group of pictures header
Text
ID : 189 (0xBD)-32 (0x20)
Format : RLE
Format/Info : Run-length encoding
Muxing mode : DVD-Video
Menu
General
Complete name : /media/erzsebet/ASSAULT_THAT_ASS_12/VIDEO_TS/VTS_07_1.VOB
Format : MPEG-PS
File size : 500 MiB
Duration : 12 min 20 s
Overall bit rate mode : Variable
Overall bit rate : 5 664 kb/s
Video
ID : 224 (0xE0)
Format : MPEG Video
Format version : Version 2
Format profile : [email protected]
Format settings : CustomMatrix / BVOP
Format settings, BVOP : Yes
Format settings, Matrix : Custom
Format settings, GOP : Variable
Format settings, picture structure : Frame
Duration : 12 min 20 s
Bit rate mode : Variable
Bit rate : 5 359 kb/s
Maximum bit rate : 9 800 kb/s
Width : 720 pixels
Height : 480 pixels
Display aspect ratio : 4:3
Frame rate : 29.970 (30000/1001) FPS
Standard : NTSC
Color space : YUV
Chroma subsampling : 4:2:0
Bit depth : 8 bits
Scan type : Interlaced
Scan order : Top Field First
Compression mode : Lossy
Bits/(Pixel*Frame) : 0.517
Time code of first frame : 01:02:29;04
Time code source : Group of pictures header
GOP, Open/Closed : Closed
Stream size : 473 MiB (95%)
Audio
ID : 189 (0xBD)-128 (0x80)
Format : AC-3
Format/Info : Audio Coding 3
Commercial name : Dolby Digital
Muxing mode : DVD-Video
Duration : 12 min 20 s
Bit rate mode : Constant
Bit rate : 192 kb/s
Channel(s) : 2 channels
Channel layout : L R
Sampling rate : 48.0 kHz
Frame rate : 31.250 FPS (1536 SPF)
Bit depth : 16 bits
Compression mode : Lossy
Stream size : 16.9 MiB (3%)
Service kind : Complete Main
Menu

Screenshots

[erzsebet.org].t2924608.torrent
Торрент: Зарегистрирован [ 2020-06-30 12:21 ]

Скачать .torrent

Скачать

10 KB

Статус: проверено
Скачан: 0 раз
Размер: 7.43 GB
Поблагодарили: 0  Спасибо
terms.php
[Профиль]  [ЛС] 
Показать сообщения:    
Ответить на тему

Текущее время: 12-Июл 01:44

Часовой пояс: UTC + 3



Вы не можете начинать темы
Вы не можете отвечать на сообщения
Вы не можете редактировать свои сообщения
Вы не можете удалять свои сообщения
Вы не можете голосовать в опросах
Вы не можете прикреплять файлы к сообщениям
Вы можете скачивать файлы