Assault That Ass 11 (John Strong / Red Light District) [2007, Anal, DP, DAP, ATM, Group, Threesome, Gonzo, DVD9] Lexi Love, Harmony Rose, Cody Lane, Katrina Isis, Isabella Pacino

Ответить на тему
Статистика раздачи
Размер:  6.63 GB   |    Зарегистрирован:  11 дней   |    Скачан:  1 раз
Сидов:  2   Личеров:  1  
 
 
Автор Сообщение

erzsebet ®

Стаж: 18 лет

Сообщений: 471259

Откуда: Венгрия

Создавать темы 30-Июн-2020 13:05  |  Сменить автора

[Цитировать] 

Assault That Ass 11
Штурм анального отверстия 11
Год релиза: 2007 г.
Страна: USA
Жанр: Anal, DP, DAP, ATM, Group, Threesome, Gonzo
Продолжительность:02:46:11
Режиссер: John Strong
Студия: Red Light District
В ролях:
Lexi Love, Harmony Rose, Cody Lane, Katrina Isis, Isabella Pacino

Описание:
Booty is calling your name! These wickedly fine, horny cumsluts are prepping their sphincters for the home stretch!
Red Light District gives you plenty of tight butt cracks to puncture as Lexi Love, Cody Lane, Katrina Isis,
and Isabella Pacino all show you how much they love to take it up the ass!
Качество видео: DVD9
Формат видео: DVD-Video

MediaInfo

General
Complete name : /media/erzsebet/ASSAULT_THAT_ASS_11/VIDEO_TS/VIDEO_TS.BUP
Format : DVD Video
Format profile : Menu
File size : 22.0 KiB
Overall bit rate mode : Variable
FileExtension_Invalid : ifo
Video
ID : 224 (0xE0)
Format : MPEG Video
Format version : Version 2
Bit rate mode : Variable
Width : 720 pixels
Height : 480 pixels
Display aspect ratio : 4:3
Frame rate : 29.970 (29970/1000) FPS
Standard : NTSC
Compression mode : Lossy
Text
Format : RLE
Format/Info : Run-length encoding
Bit depth : 2 bits
General
Complete name : /media/erzsebet/ASSAULT_THAT_ASS_11/VIDEO_TS/VIDEO_TS.IFO
Format : DVD Video
Format profile : Menu
File size : 22.0 KiB
Overall bit rate mode : Variable
Video
ID : 224 (0xE0)
Format : MPEG Video
Format version : Version 2
Bit rate mode : Variable
Width : 720 pixels
Height : 480 pixels
Display aspect ratio : 4:3
Frame rate : 29.970 (29970/1000) FPS
Standard : NTSC
Compression mode : Lossy
Text
Format : RLE
Format/Info : Run-length encoding
Bit depth : 2 bits
General
Complete name : /media/erzsebet/ASSAULT_THAT_ASS_11/VIDEO_TS/VIDEO_TS.VOB
Format : MPEG-PS
File size : 114 KiB
Duration : 467 ms
Overall bit rate : 2 000 kb/s
Video
ID : 224 (0xE0)
Format : MPEG Video
Format version : Version 2
Format profile : [email protected]
Format settings : CustomMatrix / BVOP
Format settings, BVOP : Yes
Format settings, Matrix : Custom
Format settings, picture structure : Frame
Duration : 467 ms
Bit rate mode : Constant
Maximum bit rate : 2 000 kb/s
Width : 720 pixels
Height : 480 pixels
Display aspect ratio : 4:3
Frame rate : 29.970 (30000/1001) FPS
Standard : NTSC
Color space : YUV
Chroma subsampling : 4:2:0
Bit depth : 8 bits
Scan type : Interlaced
Scan order : Top Field First
Compression mode : Lossy
Time code of first frame : 00:00:00:01
Time code source : Group of pictures header
Text
ID : 189 (0xBD)-32 (0x20)
Format : RLE
Format/Info : Run-length encoding
Muxing mode : DVD-Video
Menu
General
Complete name : /media/erzsebet/ASSAULT_THAT_ASS_11/VIDEO_TS/VTS_01_0.BUP
Format : DVD Video
Format profile : Program
File size : 124 KiB
Duration : 2 h 46 min
Overall bit rate mode : Variable
Overall bit rate : 102 b/s
FileExtension_Invalid : ifo
Video
ID : 224 (0xE0)
Format : MPEG Video
Format version : Version 2
Duration : 2 h 46 min
Bit rate mode : Variable
Width : 720 pixels
Height : 480 pixels
Display aspect ratio : 4:3
Frame rate : 29.970 (29970/1000) FPS
Standard : NTSC
Compression mode : Lossy
Audio #1
ID : 128 (0x80)
Format : AC-3
Format/Info : Audio Coding 3
Duration : 2 h 46 min
Channel(s) : 2 channels
Sampling rate : 48.0 kHz
Compression mode : Lossy
Language : English
Audio #2
Format : AC-3
Format/Info : Audio Coding 3
Duration : 2 h 46 min
Channel(s) : 6 channels
Sampling rate : 48.0 kHz
Compression mode : Lossy
Language : English
Audio #3
Format : AC-3
Format/Info : Audio Coding 3
Duration : 2 h 46 min
Channel(s) : 6 channels
Sampling rate : 48.0 kHz
Compression mode : Lossy
Language : English
Audio #4
Format : AC-3
Format/Info : Audio Coding 3
Duration : 2 h 46 min
Channel(s) : 6 channels
Sampling rate : 48.0 kHz
Compression mode : Lossy
Language : English
Audio #5
Format : AC-3
Format/Info : Audio Coding 3
Duration : 2 h 46 min
Channel(s) : 6 channels
Sampling rate : 48.0 kHz
Compression mode : Lossy
Language : English
Audio #6
Format : AC-3
Format/Info : Audio Coding 3
Duration : 2 h 46 min
Channel(s) : 6 channels
Sampling rate : 48.0 kHz
Compression mode : Lossy
Language : English
Audio #7
Format : AC-3
Format/Info : Audio Coding 3
Duration : 2 h 46 min
Channel(s) : 6 channels
Sampling rate : 48.0 kHz
Compression mode : Lossy
Language : English
Audio #8
Format : AC-3
Format/Info : Audio Coding 3
Duration : 2 h 46 min
Channel(s) : 6 channels
Sampling rate : 48.0 kHz
Compression mode : Lossy
Language : English
Text #1
Format : RLE
Format/Info : Run-length encoding
Bit depth : 2 bits
Text #2
Format : RLE
Format/Info : Run-length encoding
Bit depth : 2 bits
Text #3
Format : RLE
Format/Info : Run-length encoding
Bit depth : 2 bits
Text #4
Format : RLE
Format/Info : Run-length encoding
Bit depth : 2 bits
Text #5
Format : RLE
Format/Info : Run-length encoding
Bit depth : 2 bits
Text #6
Format : RLE
Format/Info : Run-length encoding
Bit depth : 2 bits
Text #7
Format : RLE
Format/Info : Run-length encoding
Bit depth : 2 bits
Text #8
Format : RLE
Format/Info : Run-length encoding
Bit depth : 2 bits
Text #9
Format : RLE
Format/Info : Run-length encoding
Bit depth : 2 bits
Text #10
Format : RLE
Format/Info : Run-length encoding
Bit depth : 2 bits
Text #11
Format : RLE
Format/Info : Run-length encoding
Bit depth : 2 bits
Text #12
Format : RLE
Format/Info : Run-length encoding
Bit depth : 2 bits
Text #13
Format : RLE
Format/Info : Run-length encoding
Bit depth : 2 bits
Text #14
Format : RLE
Format/Info : Run-length encoding
Bit depth : 2 bits
Text #15
Format : RLE
Format/Info : Run-length encoding
Bit depth : 2 bits
Text #16
Format : RLE
Format/Info : Run-length encoding
Bit depth : 2 bits
Text #17
Format : RLE
Format/Info : Run-length encoding
Bit depth : 2 bits
Text #18
Format : RLE
Format/Info : Run-length encoding
Bit depth : 2 bits
Text #19
Format : RLE
Format/Info : Run-length encoding
Bit depth : 2 bits
Text #20
Format : RLE
Format/Info : Run-length encoding
Bit depth : 2 bits
Text #21
Format : RLE
Format/Info : Run-length encoding
Bit depth : 2 bits
Text #22
Format : RLE
Format/Info : Run-length encoding
Bit depth : 2 bits
Text #23
Format : RLE
Format/Info : Run-length encoding
Bit depth : 2 bits
Text #24
Format : RLE
Format/Info : Run-length encoding
Bit depth : 2 bits
Text #25
Format : RLE
Format/Info : Run-length encoding
Bit depth : 2 bits
Text #26
Format : RLE
Format/Info : Run-length encoding
Bit depth : 2 bits
Text #27
Format : RLE
Format/Info : Run-length encoding
Bit depth : 2 bits
Text #28
Format : RLE
Format/Info : Run-length encoding
Bit depth : 2 bits
Text #29
Format : RLE
Format/Info : Run-length encoding
Bit depth : 2 bits
Text #30
Format : RLE
Format/Info : Run-length encoding
Bit depth : 2 bits
Text #31
Format : RLE
Format/Info : Run-length encoding
Bit depth : 2 bits
Text #32
Format : RLE
Format/Info : Run-length encoding
Bit depth : 2 bits
Menu #1
Duration : 2 h 46 min
00:00:00.000 : Chapter 1
00:01:31.033 : Chapter 2
00:04:50.566 : Chapter 3
00:06:11.566 : Chapter 4
00:08:41.066 : Chapter 5
00:10:33.566 : Chapter 6
00:12:45.566 : Chapter 7
00:16:58.066 : Chapter 8
00:22:47.566 : Chapter 9
00:26:42.066 : Chapter 10
00:30:49.066 : Chapter 11
00:31:37.566 : Chapter 12
00:34:42.566 : Chapter 13
00:38:19.066 : Chapter 14
00:40:18.066 : Chapter 15
00:49:55.066 : Chapter 16
00:57:05.066 : Chapter 17
01:00:42.566 : Chapter 18
01:02:17.066 : Chapter 19
01:03:04.066 : Chapter 20
01:05:39.966 : Chapter 21
01:07:03.966 : Chapter 22
01:08:16.466 : Chapter 23
01:09:39.966 : Chapter 24
01:11:51.966 : Chapter 25
01:14:14.466 : Chapter 26
01:16:08.966 : Chapter 27
01:18:42.466 : Chapter 28
01:20:49.466 : Chapter 29
01:33:39.799 : Chapter 30
01:34:26.299 : Chapter 31
01:37:43.565 : Chapter 32
01:42:49.565 : Chapter 33
01:44:24.565 : Chapter 34
01:45:21.065 : Chapter 35
01:46:29.065 : Chapter 36
01:47:51.565 : Chapter 37
01:50:48.565 : Chapter 38
01:52:25.565 : Chapter 39
01:54:30.065 : Chapter 40
01:56:11.065 : Chapter 41
01:57:38.065 : Chapter 42
02:00:20.065 : Chapter 43
02:02:49.065 : Chapter 44
02:09:29.065 : Chapter 45
02:10:43.065 : Chapter 46
02:14:47.465 : Chapter 47
02:18:12.465 : Chapter 48
02:22:05.965 : Chapter 49
02:29:12.298 : Chapter 50
02:33:03.798 : Chapter 51
02:38:28.298 : Chapter 52
02:41:09.298 : Chapter 53
02:41:59.298 : Chapter 54
02:43:11.298 : Chapter 55
02:46:11.164 : Chapter 56
List (Audio) : 0
Menu #2
Duration : 4 min 48 s
00:00:00.000 : Chapter 1
00:00:48.500 : Chapter 2
00:01:35.500 : Chapter 3
00:02:22.000 : Chapter 4
00:03:36.000 : Chapter 5
00:04:48.000 : Chapter 6
List (Audio) : 0
Menu #3
Duration : 49 s 33 ms
00:00:00.000 : Chapter 1
00:00:48.500 : Chapter 2
List (Audio) : 0
Menu #4
Duration : 47 s 533 ms
00:00:00.000 : Chapter 1
00:00:47.000 : Chapter 2
List (Audio) : 0
Menu #5
Duration : 47 s 33 ms
00:00:00.000 : Chapter 1
00:00:46.500 : Chapter 2
List (Audio) : 0
Menu #6
Duration : 1 min 14 s
00:00:00.000 : Chapter 1
00:01:14.000 : Chapter 2
List (Audio) : 0
Menu #7
Duration : 1 min 12 s
00:00:00.000 : Chapter 1
00:01:12.000 : Chapter 2
List (Audio) : 0
General
Complete name : /media/erzsebet/ASSAULT_THAT_ASS_11/VIDEO_TS/VTS_01_0.IFO
Format : DVD Video
Format profile : Program
File size : 124 KiB
Duration : 2 h 46 min
Overall bit rate mode : Variable
Overall bit rate : 102 b/s
Video
ID : 224 (0xE0)
Format : MPEG Video
Format version : Version 2
Duration : 2 h 46 min
Bit rate mode : Variable
Width : 720 pixels
Height : 480 pixels
Display aspect ratio : 4:3
Frame rate : 29.970 (29970/1000) FPS
Standard : NTSC
Compression mode : Lossy
Audio #1
ID : 128 (0x80)
Format : AC-3
Format/Info : Audio Coding 3
Duration : 2 h 46 min
Channel(s) : 2 channels
Sampling rate : 48.0 kHz
Compression mode : Lossy
Language : English
Audio #2
Format : AC-3
Format/Info : Audio Coding 3
Duration : 2 h 46 min
Channel(s) : 6 channels
Sampling rate : 48.0 kHz
Compression mode : Lossy
Language : English
Audio #3
Format : AC-3
Format/Info : Audio Coding 3
Duration : 2 h 46 min
Channel(s) : 6 channels
Sampling rate : 48.0 kHz
Compression mode : Lossy
Language : English
Audio #4
Format : AC-3
Format/Info : Audio Coding 3
Duration : 2 h 46 min
Channel(s) : 6 channels
Sampling rate : 48.0 kHz
Compression mode : Lossy
Language : English
Audio #5
Format : AC-3
Format/Info : Audio Coding 3
Duration : 2 h 46 min
Channel(s) : 6 channels
Sampling rate : 48.0 kHz
Compression mode : Lossy
Language : English
Audio #6
Format : AC-3
Format/Info : Audio Coding 3
Duration : 2 h 46 min
Channel(s) : 6 channels
Sampling rate : 48.0 kHz
Compression mode : Lossy
Language : English
Audio #7
Format : AC-3
Format/Info : Audio Coding 3
Duration : 2 h 46 min
Channel(s) : 6 channels
Sampling rate : 48.0 kHz
Compression mode : Lossy
Language : English
Audio #8
Format : AC-3
Format/Info : Audio Coding 3
Duration : 2 h 46 min
Channel(s) : 6 channels
Sampling rate : 48.0 kHz
Compression mode : Lossy
Language : English
Text #1
Format : RLE
Format/Info : Run-length encoding
Bit depth : 2 bits
Text #2
Format : RLE
Format/Info : Run-length encoding
Bit depth : 2 bits
Text #3
Format : RLE
Format/Info : Run-length encoding
Bit depth : 2 bits
Text #4
Format : RLE
Format/Info : Run-length encoding
Bit depth : 2 bits
Text #5
Format : RLE
Format/Info : Run-length encoding
Bit depth : 2 bits
Text #6
Format : RLE
Format/Info : Run-length encoding
Bit depth : 2 bits
Text #7
Format : RLE
Format/Info : Run-length encoding
Bit depth : 2 bits
Text #8
Format : RLE
Format/Info : Run-length encoding
Bit depth : 2 bits
Text #9
Format : RLE
Format/Info : Run-length encoding
Bit depth : 2 bits
Text #10
Format : RLE
Format/Info : Run-length encoding
Bit depth : 2 bits
Text #11
Format : RLE
Format/Info : Run-length encoding
Bit depth : 2 bits
Text #12
Format : RLE
Format/Info : Run-length encoding
Bit depth : 2 bits
Text #13
Format : RLE
Format/Info : Run-length encoding
Bit depth : 2 bits
Text #14
Format : RLE
Format/Info : Run-length encoding
Bit depth : 2 bits
Text #15
Format : RLE
Format/Info : Run-length encoding
Bit depth : 2 bits
Text #16
Format : RLE
Format/Info : Run-length encoding
Bit depth : 2 bits
Text #17
Format : RLE
Format/Info : Run-length encoding
Bit depth : 2 bits
Text #18
Format : RLE
Format/Info : Run-length encoding
Bit depth : 2 bits
Text #19
Format : RLE
Format/Info : Run-length encoding
Bit depth : 2 bits
Text #20
Format : RLE
Format/Info : Run-length encoding
Bit depth : 2 bits
Text #21
Format : RLE
Format/Info : Run-length encoding
Bit depth : 2 bits
Text #22
Format : RLE
Format/Info : Run-length encoding
Bit depth : 2 bits
Text #23
Format : RLE
Format/Info : Run-length encoding
Bit depth : 2 bits
Text #24
Format : RLE
Format/Info : Run-length encoding
Bit depth : 2 bits
Text #25
Format : RLE
Format/Info : Run-length encoding
Bit depth : 2 bits
Text #26
Format : RLE
Format/Info : Run-length encoding
Bit depth : 2 bits
Text #27
Format : RLE
Format/Info : Run-length encoding
Bit depth : 2 bits
Text #28
Format : RLE
Format/Info : Run-length encoding
Bit depth : 2 bits
Text #29
Format : RLE
Format/Info : Run-length encoding
Bit depth : 2 bits
Text #30
Format : RLE
Format/Info : Run-length encoding
Bit depth : 2 bits
Text #31
Format : RLE
Format/Info : Run-length encoding
Bit depth : 2 bits
Text #32
Format : RLE
Format/Info : Run-length encoding
Bit depth : 2 bits
Menu #1
Duration : 2 h 46 min
00:00:00.000 : Chapter 1
00:01:31.033 : Chapter 2
00:04:50.566 : Chapter 3
00:06:11.566 : Chapter 4
00:08:41.066 : Chapter 5
00:10:33.566 : Chapter 6
00:12:45.566 : Chapter 7
00:16:58.066 : Chapter 8
00:22:47.566 : Chapter 9
00:26:42.066 : Chapter 10
00:30:49.066 : Chapter 11
00:31:37.566 : Chapter 12
00:34:42.566 : Chapter 13
00:38:19.066 : Chapter 14
00:40:18.066 : Chapter 15
00:49:55.066 : Chapter 16
00:57:05.066 : Chapter 17
01:00:42.566 : Chapter 18
01:02:17.066 : Chapter 19
01:03:04.066 : Chapter 20
01:05:39.966 : Chapter 21
01:07:03.966 : Chapter 22
01:08:16.466 : Chapter 23
01:09:39.966 : Chapter 24
01:11:51.966 : Chapter 25
01:14:14.466 : Chapter 26
01:16:08.966 : Chapter 27
01:18:42.466 : Chapter 28
01:20:49.466 : Chapter 29
01:33:39.799 : Chapter 30
01:34:26.299 : Chapter 31
01:37:43.565 : Chapter 32
01:42:49.565 : Chapter 33
01:44:24.565 : Chapter 34
01:45:21.065 : Chapter 35
01:46:29.065 : Chapter 36
01:47:51.565 : Chapter 37
01:50:48.565 : Chapter 38
01:52:25.565 : Chapter 39
01:54:30.065 : Chapter 40
01:56:11.065 : Chapter 41
01:57:38.065 : Chapter 42
02:00:20.065 : Chapter 43
02:02:49.065 : Chapter 44
02:09:29.065 : Chapter 45
02:10:43.065 : Chapter 46
02:14:47.465 : Chapter 47
02:18:12.465 : Chapter 48
02:22:05.965 : Chapter 49
02:29:12.298 : Chapter 50
02:33:03.798 : Chapter 51
02:38:28.298 : Chapter 52
02:41:09.298 : Chapter 53
02:41:59.298 : Chapter 54
02:43:11.298 : Chapter 55
02:46:11.164 : Chapter 56
List (Audio) : 0
Menu #2
Duration : 4 min 48 s
00:00:00.000 : Chapter 1
00:00:48.500 : Chapter 2
00:01:35.500 : Chapter 3
00:02:22.000 : Chapter 4
00:03:36.000 : Chapter 5
00:04:48.000 : Chapter 6
List (Audio) : 0
Menu #3
Duration : 49 s 33 ms
00:00:00.000 : Chapter 1
00:00:48.500 : Chapter 2
List (Audio) : 0
Menu #4
Duration : 47 s 533 ms
00:00:00.000 : Chapter 1
00:00:47.000 : Chapter 2
List (Audio) : 0
Menu #5
Duration : 47 s 33 ms
00:00:00.000 : Chapter 1
00:00:46.500 : Chapter 2
List (Audio) : 0
Menu #6
Duration : 1 min 14 s
00:00:00.000 : Chapter 1
00:01:14.000 : Chapter 2
List (Audio) : 0
Menu #7
Duration : 1 min 12 s
00:00:00.000 : Chapter 1
00:01:12.000 : Chapter 2
List (Audio) : 0
General
Complete name : /media/erzsebet/ASSAULT_THAT_ASS_11/VIDEO_TS/VTS_01_0.VOB
Format : MPEG-PS
File size : 64.8 MiB
Duration : 30 s 16 ms
Overall bit rate : 18.1 Mb/s
Video
ID : 224 (0xE0)
Format : MPEG Video
Format version : Version 2
Format profile : [email protected]
Format settings : CustomMatrix / BVOP
Format settings, BVOP : Yes
Format settings, Matrix : Custom
Format settings, GOP : Variable
Format settings, picture structure : Frame
Duration : 33 ms
Bit rate mode : Constant
Bit rate : 17.5 Mb/s
Maximum bit rate : 6 000 kb/s
Width : 720 pixels
Height : 480 pixels
Display aspect ratio : 4:3
Frame rate : 29.970 (30000/1001) FPS
Standard : NTSC
Color space : YUV
Chroma subsampling : 4:2:0
Bit depth : 8 bits
Scan type : Interlaced
Scan order : Top Field First
Compression mode : Lossy
Bits/(Pixel*Frame) : 1.694
Time code of first frame : 01:00:00:00
Time code source : Group of pictures header
GOP, Open/Closed : Open
GOP, Open/Closed of first frame : Closed
Stream size : 71.5 KiB (0%)
Audio
ID : 189 (0xBD)-128 (0x80)
Format : AC-3
Format/Info : Audio Coding 3
Commercial name : Dolby Digital
Muxing mode : DVD-Video
Duration : 30 s 16 ms
Bit rate mode : Constant
Bit rate : 192 kb/s
Channel(s) : 2 channels
Channel layout : L R
Sampling rate : 48.0 kHz
Frame rate : 31.250 FPS (1536 SPF)
Bit depth : 16 bits
Compression mode : Lossy
Stream size : 704 KiB (1%)
Service kind : Complete Main
Text
ID : 189 (0xBD)-32 (0x20)
Format : RLE
Format/Info : Run-length encoding
Muxing mode : DVD-Video
Menu
General
Complete name : /media/erzsebet/ASSAULT_THAT_ASS_11/VIDEO_TS/VTS_01_1.VOB
Format : MPEG-PS
File size : 1 024 MiB
Duration : 29 min 35 s
Overall bit rate mode : Variable
Overall bit rate : 4 838 kb/s
Video
ID : 224 (0xE0)
Format : MPEG Video
Format version : Version 2
Format profile : [email protected]
Format settings : CustomMatrix / BVOP
Format settings, BVOP : Yes
Format settings, Matrix : Custom
Format settings, GOP : Variable
Format settings, picture structure : Frame
Duration : 29 min 35 s
Bit rate mode : Variable
Bit rate : 4 550 kb/s
Maximum bit rate : 9 800 kb/s
Width : 720 pixels
Height : 480 pixels
Display aspect ratio : 4:3
Frame rate : 29.970 (30000/1001) FPS
Standard : NTSC
Color space : YUV
Chroma subsampling : 4:2:0
Bit depth : 8 bits
Scan type : Interlaced
Scan order : Top Field First
Compression mode : Lossy
Bits/(Pixel*Frame) : 0.439
Time code of first frame : 01:02:10;04
Time code source : Group of pictures header
GOP, Open/Closed : Closed
Stream size : 963 MiB (94%)
Audio
ID : 189 (0xBD)-128 (0x80)
Format : AC-3
Format/Info : Audio Coding 3
Commercial name : Dolby Digital
Muxing mode : DVD-Video
Duration : 29 min 34 s
Bit rate mode : Constant
Bit rate : 192 kb/s
Channel(s) : 2 channels
Channel layout : L R
Sampling rate : 48.0 kHz
Frame rate : 31.250 FPS (1536 SPF)
Bit depth : 16 bits
Compression mode : Lossy
Stream size : 40.6 MiB (4%)
Service kind : Complete Main
Menu
General
Complete name : /media/erzsebet/ASSAULT_THAT_ASS_11/VIDEO_TS/VTS_01_2.VOB
Format : MPEG-PS
File size : 1 024 MiB
Duration : 29 min 38 s
Overall bit rate mode : Variable
Overall bit rate : 4 829 kb/s
Video
ID : 224 (0xE0)
Format : MPEG Video
Format version : Version 2
Format profile : [email protected]
Format settings : CustomMatrix / BVOP
Format settings, BVOP : Yes
Format settings, Matrix : Custom
Format settings, GOP : M=3, N=15
Format settings, picture structure : Frame
Duration : 29 min 38 s
Bit rate mode : Variable
Bit rate : 4 541 kb/s
Maximum bit rate : 9 800 kb/s
Width : 720 pixels
Height : 480 pixels
Display aspect ratio : 4:3
Frame rate : 29.970 (30000/1001) FPS
Standard : NTSC
Color space : YUV
Chroma subsampling : 4:2:0
Bit depth : 8 bits
Scan type : Interlaced
Scan order : Top Field First
Compression mode : Lossy
Bits/(Pixel*Frame) : 0.438
Time code of first frame : 01:31:45;13
Time code source : Group of pictures header
GOP, Open/Closed : Closed
Stream size : 963 MiB (94%)
Audio
ID : 189 (0xBD)-128 (0x80)
Format : AC-3
Format/Info : Audio Coding 3
Commercial name : Dolby Digital
Muxing mode : DVD-Video
Duration : 29 min 38 s
Bit rate mode : Constant
Bit rate : 192 kb/s
Channel(s) : 2 channels
Channel layout : L R
Sampling rate : 48.0 kHz
Frame rate : 31.250 FPS (1536 SPF)
Bit depth : 16 bits
Compression mode : Lossy
Delay relative to video : -396 ms
Stream size : 40.7 MiB (4%)
Service kind : Complete Main
Menu
General
Complete name : /media/erzsebet/ASSAULT_THAT_ASS_11/VIDEO_TS/VTS_01_3.VOB
Format : MPEG-PS
File size : 1 024 MiB
Duration : 29 min 36 s
Overall bit rate mode : Variable
Overall bit rate : 4 833 kb/s
Video
ID : 224 (0xE0)
Format : MPEG Video
Format version : Version 2
Format profile : [email protected]
Format settings : CustomMatrix / BVOP
Format settings, BVOP : Yes
Format settings, Matrix : Custom
Format settings, GOP : M=3, N=15
Format settings, picture structure : Frame
Duration : 29 min 36 s
Bit rate mode : Variable
Bit rate : 4 545 kb/s
Maximum bit rate : 9 800 kb/s
Width : 720 pixels
Height : 480 pixels
Display aspect ratio : 4:3
Frame rate : 29.970 (30000/1001) FPS
Standard : NTSC
Color space : YUV
Chroma subsampling : 4:2:0
Bit depth : 8 bits
Scan type : Interlaced
Scan order : Top Field First
Compression mode : Lossy
Bits/(Pixel*Frame) : 0.439
Time code of first frame : 02:01:24;07
Time code source : Group of pictures header
GOP, Open/Closed : Closed
Stream size : 963 MiB (94%)
Audio
ID : 189 (0xBD)-128 (0x80)
Format : AC-3
Format/Info : Audio Coding 3
Commercial name : Dolby Digital
Muxing mode : DVD-Video
Duration : 29 min 36 s
Bit rate mode : Constant
Bit rate : 192 kb/s
Channel(s) : 2 channels
Channel layout : L R
Sampling rate : 48.0 kHz
Frame rate : 31.250 FPS (1536 SPF)
Bit depth : 16 bits
Compression mode : Lossy
Delay relative to video : -486 ms
Stream size : 40.7 MiB (4%)
Service kind : Complete Main
Menu
General
Complete name : /media/erzsebet/ASSAULT_THAT_ASS_11/VIDEO_TS/VTS_01_4.VOB
Format : MPEG-PS
File size : 1 024 MiB
Duration : 29 min 19 s
Overall bit rate mode : Variable
Overall bit rate : 4 880 kb/s
Video
ID : 224 (0xE0)
Format : MPEG Video
Format version : Version 2
Format profile : [email protected]
Format settings : CustomMatrix / BVOP
Format settings, BVOP : Yes
Format settings, Matrix : Custom
Format settings, GOP : M=3, N=15
Format settings, picture structure : Frame
Duration : 29 min 19 s
Bit rate mode : Variable
Bit rate : 4 591 kb/s
Maximum bit rate : 9 800 kb/s
Width : 720 pixels
Height : 480 pixels
Display aspect ratio : 4:3
Frame rate : 29.970 (30000/1001) FPS
Standard : NTSC
Color space : YUV
Chroma subsampling : 4:2:0
Bit depth : 8 bits
Scan type : Interlaced
Scan order : Top Field First
Compression mode : Lossy
Bits/(Pixel*Frame) : 0.443
Time code of first frame : 02:31:01;08
Time code source : Group of pictures header
GOP, Open/Closed : Closed
Stream size : 963 MiB (94%)
Audio
ID : 189 (0xBD)-128 (0x80)
Format : AC-3
Format/Info : Audio Coding 3
Commercial name : Dolby Digital
Muxing mode : DVD-Video
Duration : 29 min 19 s
Bit rate mode : Constant
Bit rate : 192 kb/s
Channel(s) : 2 channels
Channel layout : L R
Sampling rate : 48.0 kHz
Frame rate : 31.250 FPS (1536 SPF)
Bit depth : 16 bits
Compression mode : Lossy
Delay relative to video : -470 ms
Stream size : 40.3 MiB (4%)
Service kind : Complete Main
Menu
General
Complete name : /media/erzsebet/ASSAULT_THAT_ASS_11/VIDEO_TS/VTS_01_5.VOB
Format : MPEG-PS
File size : 1 024 MiB
Duration : 28 min 45 s
Overall bit rate mode : Variable
Overall bit rate : 4 977 kb/s
Video
ID : 224 (0xE0)
Format : MPEG Video
Format version : Version 2
Format profile : [email protected]
Format settings : CustomMatrix / BVOP
Format settings, BVOP : Yes
Format settings, Matrix : Custom
Format settings, GOP : M=3, N=15
Format settings, picture structure : Frame
Duration : 28 min 45 s
Bit rate mode : Variable
Bit rate : 4 686 kb/s
Maximum bit rate : 9 800 kb/s
Width : 720 pixels
Height : 480 pixels
Display aspect ratio : 4:3
Frame rate : 29.970 (30000/1001) FPS
Standard : NTSC
Color space : YUV
Chroma subsampling : 4:2:0
Bit depth : 8 bits
Scan type : Interlaced
Scan order : Top Field First
Compression mode : Lossy
Bits/(Pixel*Frame) : 0.452
Time code of first frame : 03:00:21;08
Time code source : Group of pictures header
GOP, Open/Closed : Closed
Stream size : 964 MiB (94%)
Audio
ID : 189 (0xBD)-128 (0x80)
Format : AC-3
Format/Info : Audio Coding 3
Commercial name : Dolby Digital
Muxing mode : DVD-Video
Duration : 28 min 45 s
Bit rate mode : Constant
Bit rate : 192 kb/s
Channel(s) : 2 channels
Channel layout : L R
Sampling rate : 48.0 kHz
Frame rate : 31.250 FPS (1536 SPF)
Bit depth : 16 bits
Compression mode : Lossy
Delay relative to video : -527 ms
Stream size : 39.5 MiB (4%)
Service kind : Complete Main
Menu
General
Complete name : /media/erzsebet/ASSAULT_THAT_ASS_11/VIDEO_TS/VTS_01_6.VOB
Format : MPEG-PS
File size : 658 MiB
Duration : 19 min 25 s
Overall bit rate mode : Variable
Overall bit rate : 4 735 kb/s
Video
ID : 224 (0xE0)
Format : MPEG Video
Format version : Version 2
Format profile : [email protected]
Format settings : CustomMatrix / BVOP
Format settings, BVOP : Yes
Format settings, Matrix : Custom
Format settings, GOP : M=3, N=15
Format settings, picture structure : Frame
Duration : 19 min 24 s
Bit rate mode : Variable
Bit rate : 4 448 kb/s
Maximum bit rate : 9 800 kb/s
Width : 720 pixels
Height : 480 pixels
Display aspect ratio : 4:3
Frame rate : 29.970 (30000/1001) FPS
Standard : NTSC
Color space : YUV
Chroma subsampling : 4:2:0
Bit depth : 8 bits
Scan type : Interlaced
Scan order : Top Field First
Compression mode : Lossy
Bits/(Pixel*Frame) : 0.429
Time code of first frame : 03:29:06;29
Time code source : Group of pictures header
GOP, Open/Closed : Closed
Stream size : 618 MiB (94%)
Audio
ID : 189 (0xBD)-128 (0x80)
Format : AC-3
Format/Info : Audio Coding 3
Commercial name : Dolby Digital
Muxing mode : DVD-Video
Duration : 19 min 25 s
Bit rate mode : Constant
Bit rate : 192 kb/s
Channel(s) : 2 channels
Channel layout : L R
Sampling rate : 48.0 kHz
Frame rate : 31.250 FPS (1536 SPF)
Bit depth : 16 bits
Compression mode : Lossy
Delay relative to video : -454 ms
Stream size : 26.7 MiB (4%)
Service kind : Complete Main
Menu
General
Complete name : /media/erzsebet/ASSAULT_THAT_ASS_11/VIDEO_TS/VTS_02_0.BUP
Format : DVD Video
Format profile : Program
File size : 18.0 KiB
Duration : 1 s 66 ms
Overall bit rate mode : Variable
Overall bit rate : 138 kb/s
FileExtension_Invalid : ifo
Video
ID : 224 (0xE0)
Format : MPEG Video
Format version : Version 2
Duration : 1 s 68 ms
Bit rate mode : Variable
Bit rate : 126 kb/s
Width : 720 pixels
Height : 480 pixels
Display aspect ratio : 4:3
Frame rate : 29.970 (29970/1000) FPS
Standard : NTSC
Compression mode : Lossy
Bits/(Pixel*Frame) : 0.012
Stream size : 16.4 KiB (91%)
Menu
Duration : 1 s 66 ms
00:00:00.000 : Chapter 1
00:00:00.500 : Chapter 2
General
Complete name : /media/erzsebet/ASSAULT_THAT_ASS_11/VIDEO_TS/VTS_02_0.IFO
Format : DVD Video
Format profile : Program
File size : 18.0 KiB
Duration : 1 s 66 ms
Overall bit rate mode : Variable
Overall bit rate : 138 kb/s
Video
ID : 224 (0xE0)
Format : MPEG Video
Format version : Version 2
Duration : 1 s 68 ms
Bit rate mode : Variable
Bit rate : 126 kb/s
Width : 720 pixels
Height : 480 pixels
Display aspect ratio : 4:3
Frame rate : 29.970 (29970/1000) FPS
Standard : NTSC
Compression mode : Lossy
Bits/(Pixel*Frame) : 0.012
Stream size : 16.4 KiB (91%)
Menu
Duration : 1 s 66 ms
00:00:00.000 : Chapter 1
00:00:00.500 : Chapter 2
General
Complete name : /media/erzsebet/ASSAULT_THAT_ASS_11/VIDEO_TS/VTS_02_0.VOB
Format : MPEG-PS
File size : 114 KiB
Duration : 467 ms
Overall bit rate : 2 000 kb/s
Video
ID : 224 (0xE0)
Format : MPEG Video
Format version : Version 2
Format profile : [email protected]
Format settings : CustomMatrix / BVOP
Format settings, BVOP : Yes
Format settings, Matrix : Custom
Format settings, picture structure : Frame
Duration : 467 ms
Bit rate mode : Constant
Maximum bit rate : 2 000 kb/s
Width : 720 pixels
Height : 480 pixels
Display aspect ratio : 4:3
Frame rate : 29.970 (30000/1001) FPS
Standard : NTSC
Color space : YUV
Chroma subsampling : 4:2:0
Bit depth : 8 bits
Scan type : Interlaced
Scan order : Top Field First
Compression mode : Lossy
Time code of first frame : 00:00:00:01
Time code source : Group of pictures header
Text
ID : 189 (0xBD)-32 (0x20)
Format : RLE
Format/Info : Run-length encoding
Muxing mode : DVD-Video
Menu
General
Complete name : /media/erzsebet/ASSAULT_THAT_ASS_11/VIDEO_TS/VTS_02_1.VOB
Format : MPEG-PS
File size : 42.0 KiB
Duration : 1 s 34 ms
Overall bit rate mode : Variable
Overall bit rate : 333 kb/s
Video
ID : 224 (0xE0)
Format : MPEG Video
Format version : Version 2
Format profile : [email protected]
Format settings : CustomMatrix / BVOP
Format settings, BVOP : Yes
Format settings, Matrix : Custom
Format settings, picture structure : Frame
Duration : 1 s 34 ms
Bit rate mode : Variable
Bit rate : 326 kb/s
Maximum bit rate : 9 800 kb/s
Width : 720 pixels
Height : 480 pixels
Display aspect ratio : 4:3
Frame rate : 29.970 (30000/1001) FPS
Standard : NTSC
Color space : YUV
Chroma subsampling : 4:2:0
Bit depth : 8 bits
Scan type : Interlaced
Scan order : Top Field First
Compression mode : Lossy
Bits/(Pixel*Frame) : 0.031
Time code of first frame : 01:00:00:00
Time code source : Group of pictures header
Stream size : 41.2 KiB (98%)
Menu
General
Complete name : /media/erzsebet/ASSAULT_THAT_ASS_11/VIDEO_TS/VTS_03_0.BUP
Format : DVD Video
Format profile : Program
File size : 18.0 KiB
Duration : 1 s 66 ms
Overall bit rate mode : Variable
Overall bit rate : 138 kb/s
FileExtension_Invalid : ifo
Video
ID : 224 (0xE0)
Format : MPEG Video
Format version : Version 2
Duration : 1 s 68 ms
Bit rate mode : Variable
Bit rate : 126 kb/s
Width : 720 pixels
Height : 480 pixels
Display aspect ratio : 4:3
Frame rate : 29.970 (29970/1000) FPS
Standard : NTSC
Compression mode : Lossy
Bits/(Pixel*Frame) : 0.012
Stream size : 16.4 KiB (91%)
Menu
Duration : 1 s 66 ms
00:00:00.000 : Chapter 1
General
Complete name : /media/erzsebet/ASSAULT_THAT_ASS_11/VIDEO_TS/VTS_03_0.IFO
Format : DVD Video
Format profile : Program
File size : 18.0 KiB
Duration : 1 s 66 ms
Overall bit rate mode : Variable
Overall bit rate : 138 kb/s
Video
ID : 224 (0xE0)
Format : MPEG Video
Format version : Version 2
Duration : 1 s 68 ms
Bit rate mode : Variable
Bit rate : 126 kb/s
Width : 720 pixels
Height : 480 pixels
Display aspect ratio : 4:3
Frame rate : 29.970 (29970/1000) FPS
Standard : NTSC
Compression mode : Lossy
Bits/(Pixel*Frame) : 0.012
Stream size : 16.4 KiB (91%)
Menu
Duration : 1 s 66 ms
00:00:00.000 : Chapter 1
General
Complete name : /media/erzsebet/ASSAULT_THAT_ASS_11/VIDEO_TS/VTS_03_0.VOB
Format : MPEG-PS
File size : 114 KiB
Duration : 467 ms
Overall bit rate : 2 000 kb/s
Video
ID : 224 (0xE0)
Format : MPEG Video
Format version : Version 2
Format profile : [email protected]
Format settings : CustomMatrix / BVOP
Format settings, BVOP : Yes
Format settings, Matrix : Custom
Format settings, picture structure : Frame
Duration : 467 ms
Bit rate mode : Constant
Maximum bit rate : 2 000 kb/s
Width : 720 pixels
Height : 480 pixels
Display aspect ratio : 4:3
Frame rate : 29.970 (30000/1001) FPS
Standard : NTSC
Color space : YUV
Chroma subsampling : 4:2:0
Bit depth : 8 bits
Scan type : Interlaced
Scan order : Top Field First
Compression mode : Lossy
Time code of first frame : 00:00:00:01
Time code source : Group of pictures header
Text
ID : 189 (0xBD)-32 (0x20)
Format : RLE
Format/Info : Run-length encoding
Muxing mode : DVD-Video
Menu
General
Complete name : /media/erzsebet/ASSAULT_THAT_ASS_11/VIDEO_TS/VTS_03_1.VOB
Format : MPEG-PS
File size : 42.0 KiB
Duration : 1 s 34 ms
Overall bit rate mode : Variable
Overall bit rate : 333 kb/s
Video
ID : 224 (0xE0)
Format : MPEG Video
Format version : Version 2
Format profile : [email protected]
Format settings : CustomMatrix / BVOP
Format settings, BVOP : Yes
Format settings, Matrix : Custom
Format settings, picture structure : Frame
Duration : 1 s 34 ms
Bit rate mode : Variable
Bit rate : 326 kb/s
Maximum bit rate : 9 800 kb/s
Width : 720 pixels
Height : 480 pixels
Display aspect ratio : 4:3
Frame rate : 29.970 (30000/1001) FPS
Standard : NTSC
Color space : YUV
Chroma subsampling : 4:2:0
Bit depth : 8 bits
Scan type : Interlaced
Scan order : Top Field First
Compression mode : Lossy
Bits/(Pixel*Frame) : 0.031
Time code of first frame : 01:00:00:00
Time code source : Group of pictures header
Stream size : 41.2 KiB (98%)
Menu
General
Complete name : /media/erzsebet/ASSAULT_THAT_ASS_11/VIDEO_TS/VTS_04_0.BUP
Format : DVD Video
Format profile : Program
File size : 18.0 KiB
Duration : 1 min 1 s
Overall bit rate mode : Variable
Overall bit rate : 2 416 b/s
FileExtension_Invalid : ifo
Video
ID : 224 (0xE0)
Format : MPEG Video
Format version : Version 2
Duration : 1 min 1 s
Bit rate mode : Variable
Width : 720 pixels
Height : 480 pixels
Display aspect ratio : 4:3
Frame rate : 29.970 (29970/1000) FPS
Standard : NTSC
Compression mode : Lossy
Menu
Duration : 1 min 1 s
00:00:00.000 : Chapter 1
00:01:00.500 : Chapter 2
General
Complete name : /media/erzsebet/ASSAULT_THAT_ASS_11/VIDEO_TS/VTS_04_0.IFO
Format : DVD Video
Format profile : Program
File size : 18.0 KiB
Duration : 1 min 1 s
Overall bit rate mode : Variable
Overall bit rate : 2 416 b/s
Video
ID : 224 (0xE0)
Format : MPEG Video
Format version : Version 2
Duration : 1 min 1 s
Bit rate mode : Variable
Width : 720 pixels
Height : 480 pixels
Display aspect ratio : 4:3
Frame rate : 29.970 (29970/1000) FPS
Standard : NTSC
Compression mode : Lossy
Menu
Duration : 1 min 1 s
00:00:00.000 : Chapter 1
00:01:00.500 : Chapter 2
General
Complete name : /media/erzsebet/ASSAULT_THAT_ASS_11/VIDEO_TS/VTS_04_0.VOB
Format : MPEG-PS
File size : 114 KiB
Duration : 467 ms
Overall bit rate : 2 000 kb/s
Video
ID : 224 (0xE0)
Format : MPEG Video
Format version : Version 2
Format profile : [email protected]
Format settings : CustomMatrix / BVOP
Format settings, BVOP : Yes
Format settings, Matrix : Custom
Format settings, picture structure : Frame
Duration : 467 ms
Bit rate mode : Constant
Maximum bit rate : 2 000 kb/s
Width : 720 pixels
Height : 480 pixels
Display aspect ratio : 4:3
Frame rate : 29.970 (30000/1001) FPS
Standard : NTSC
Color space : YUV
Chroma subsampling : 4:2:0
Bit depth : 8 bits
Scan type : Interlaced
Scan order : Top Field First
Compression mode : Lossy
Time code of first frame : 00:00:00:01
Time code source : Group of pictures header
Text
ID : 189 (0xBD)-32 (0x20)
Format : RLE
Format/Info : Run-length encoding
Muxing mode : DVD-Video
Menu
General
Complete name : /media/erzsebet/ASSAULT_THAT_ASS_11/VIDEO_TS/VTS_04_1.VOB
Format : MPEG-PS
File size : 30.4 MiB
Duration : 1 min 1 s
Overall bit rate mode : Constant
Overall bit rate : 4 174 kb/s
Video
ID : 224 (0xE0)
Format : MPEG Video
Format version : Version 2
Format profile : [email protected]
Format settings : CustomMatrix / BVOP
Format settings, BVOP : Yes
Format settings, Matrix : Custom
Format settings, GOP : M=3, N=15
Format settings, picture structure : Frame
Duration : 1 min 1 s
Bit rate mode : Constant
Bit rate : 4 091 kb/s
Maximum bit rate : 6 000 kb/s
Width : 720 pixels
Height : 480 pixels
Display aspect ratio : 4:3
Frame rate : 29.970 (30000/1001) FPS
Standard : NTSC
Color space : YUV
Chroma subsampling : 4:2:0
Bit depth : 8 bits
Scan type : Interlaced
Scan order : Top Field First
Compression mode : Lossy
Bits/(Pixel*Frame) : 0.395
Time code of first frame : 01:00:00:00
Time code source : Group of pictures header
GOP, Open/Closed : Open
GOP, Open/Closed of first frame : Closed
Stream size : 29.8 MiB (98%)
Menu
General
Complete name : /media/erzsebet/ASSAULT_THAT_ASS_11/VIDEO_TS/VTS_05_0.BUP
Format : DVD Video
Format profile : Program
File size : 18.0 KiB
Duration : 19 s 33 ms
Overall bit rate mode : Variable
Overall bit rate : 7 747 b/s
FileExtension_Invalid : ifo
Video
ID : 224 (0xE0)
Format : MPEG Video
Format version : Version 2
Duration : 19 s 19 ms
Bit rate mode : Variable
Width : 720 pixels
Height : 480 pixels
Display aspect ratio : 4:3
Frame rate : 29.970 (29970/1000) FPS
Standard : NTSC
Compression mode : Lossy
Menu
Duration : 19 s 33 ms
00:00:00.000 : Chapter 1
00:00:18.500 : Chapter 2
General
Complete name : /media/erzsebet/ASSAULT_THAT_ASS_11/VIDEO_TS/VTS_05_0.IFO
Format : DVD Video
Format profile : Program
File size : 18.0 KiB
Duration : 19 s 33 ms
Overall bit rate mode : Variable
Overall bit rate : 7 747 b/s
Video
ID : 224 (0xE0)
Format : MPEG Video
Format version : Version 2
Duration : 19 s 19 ms
Bit rate mode : Variable
Width : 720 pixels
Height : 480 pixels
Display aspect ratio : 4:3
Frame rate : 29.970 (29970/1000) FPS
Standard : NTSC
Compression mode : Lossy
Menu
Duration : 19 s 33 ms
00:00:00.000 : Chapter 1
00:00:18.500 : Chapter 2
General
Complete name : /media/erzsebet/ASSAULT_THAT_ASS_11/VIDEO_TS/VTS_05_0.VOB
Format : MPEG-PS
File size : 114 KiB
Duration : 467 ms
Overall bit rate : 2 000 kb/s
Video
ID : 224 (0xE0)
Format : MPEG Video
Format version : Version 2
Format profile : [email protected]
Format settings : CustomMatrix / BVOP
Format settings, BVOP : Yes
Format settings, Matrix : Custom
Format settings, picture structure : Frame
Duration : 467 ms
Bit rate mode : Constant
Maximum bit rate : 2 000 kb/s
Width : 720 pixels
Height : 480 pixels
Display aspect ratio : 4:3
Frame rate : 29.970 (30000/1001) FPS
Standard : NTSC
Color space : YUV
Chroma subsampling : 4:2:0
Bit depth : 8 bits
Scan type : Interlaced
Scan order : Top Field First
Compression mode : Lossy
Time code of first frame : 00:00:00:01
Time code source : Group of pictures header
Text
ID : 189 (0xBD)-32 (0x20)
Format : RLE
Format/Info : Run-length encoding
Muxing mode : DVD-Video
Menu
General
Complete name : /media/erzsebet/ASSAULT_THAT_ASS_11/VIDEO_TS/VTS_05_1.VOB
Format : MPEG-PS
File size : 4.57 MiB
Duration : 19 s 52 ms
Overall bit rate mode : Variable
Overall bit rate : 2 013 kb/s
Video
ID : 224 (0xE0)
Format : MPEG Video
Format version : Version 2
Format profile : [email protected]
Format settings : CustomMatrix / BVOP
Format settings, BVOP : Yes
Format settings, Matrix : Custom
Format settings, GOP : M=3, N=15
Format settings, picture structure : Frame
Duration : 19 s 52 ms
Bit rate mode : Variable
Bit rate : 1 973 kb/s
Maximum bit rate : 9 800 kb/s
Width : 720 pixels
Height : 480 pixels
Display aspect ratio : 4:3
Frame rate : 29.970 (30000/1001) FPS
Standard : NTSC
Color space : YUV
Chroma subsampling : 4:2:0
Bit depth : 8 bits
Scan type : Interlaced
Scan order : Top Field First
Compression mode : Lossy
Bits/(Pixel*Frame) : 0.190
Time code of first frame : 01:00:00:00
Time code source : Group of pictures header
GOP, Open/Closed : Open
GOP, Open/Closed of first frame : Closed
Stream size : 4.48 MiB (98%)
Menu
General
Complete name : /media/erzsebet/ASSAULT_THAT_ASS_11/VIDEO_TS/VTS_06_0.BUP
Format : DVD Video
Format profile : Program
File size : 22.0 KiB
Duration : 8 min 29 s
Overall bit rate mode : Variable
Overall bit rate : 354 b/s
FileExtension_Invalid : ifo
Video
ID : 224 (0xE0)
Format : MPEG Video
Format version : Version 2
Duration : 8 min 29 s
Bit rate mode : Variable
Width : 720 pixels
Height : 480 pixels
Display aspect ratio : 4:3
Frame rate : 29.970 (29970/1000) FPS
Standard : NTSC
Compression mode : Lossy
Audio
ID : 128 (0x80)
Format : AC-3
Format/Info : Audio Coding 3
Duration : 8 min 29 s
Channel(s) : 2 channels
Sampling rate : 48.0 kHz
Compression mode : Lossy
Language : English
Menu
Duration : 8 min 29 s
00:00:00.000 : Chapter 1
00:08:28.966 : Chapter 2
List (Audio) : 0
General
Complete name : /media/erzsebet/ASSAULT_THAT_ASS_11/VIDEO_TS/VTS_06_0.IFO
Format : DVD Video
Format profile : Program
File size : 22.0 KiB
Duration : 8 min 29 s
Overall bit rate mode : Variable
Overall bit rate : 354 b/s
Video
ID : 224 (0xE0)
Format : MPEG Video
Format version : Version 2
Duration : 8 min 29 s
Bit rate mode : Variable
Width : 720 pixels
Height : 480 pixels
Display aspect ratio : 4:3
Frame rate : 29.970 (29970/1000) FPS
Standard : NTSC
Compression mode : Lossy
Audio
ID : 128 (0x80)
Format : AC-3
Format/Info : Audio Coding 3
Duration : 8 min 29 s
Channel(s) : 2 channels
Sampling rate : 48.0 kHz
Compression mode : Lossy
Language : English
Menu
Duration : 8 min 29 s
00:00:00.000 : Chapter 1
00:08:28.966 : Chapter 2
List (Audio) : 0
General
Complete name : /media/erzsebet/ASSAULT_THAT_ASS_11/VIDEO_TS/VTS_06_0.VOB
Format : MPEG-PS
File size : 114 KiB
Duration : 467 ms
Overall bit rate : 2 000 kb/s
Video
ID : 224 (0xE0)
Format : MPEG Video
Format version : Version 2
Format profile : [email protected]
Format settings : CustomMatrix / BVOP
Format settings, BVOP : Yes
Format settings, Matrix : Custom
Format settings, picture structure : Frame
Duration : 467 ms
Bit rate mode : Constant
Maximum bit rate : 2 000 kb/s
Width : 720 pixels
Height : 480 pixels
Display aspect ratio : 4:3
Frame rate : 29.970 (30000/1001) FPS
Standard : NTSC
Color space : YUV
Chroma subsampling : 4:2:0
Bit depth : 8 bits
Scan type : Interlaced
Scan order : Top Field First
Compression mode : Lossy
Time code of first frame : 00:00:00:01
Time code source : Group of pictures header
Text
ID : 189 (0xBD)-32 (0x20)
Format : RLE
Format/Info : Run-length encoding
Muxing mode : DVD-Video
Menu
General
Complete name : /media/erzsebet/ASSAULT_THAT_ASS_11/VIDEO_TS/VTS_06_1.VOB
Format : MPEG-PS
File size : 383 MiB
Duration : 8 min 29 s
Overall bit rate mode : Constant
Overall bit rate : 6 305 kb/s
Video
ID : 224 (0xE0)
Format : MPEG Video
Format version : Version 2
Format profile : [email protected]
Format settings : CustomMatrix / BVOP
Format settings, BVOP : Yes
Format settings, Matrix : Custom
Format settings, GOP : Variable
Format settings, picture structure : Frame
Duration : 8 min 29 s
Bit rate mode : Constant
Bit rate : 6 000 kb/s
Width : 720 pixels
Height : 480 pixels
Display aspect ratio : 4:3
Frame rate : 29.970 (30000/1001) FPS
Standard : NTSC
Color space : YUV
Chroma subsampling : 4:2:0
Bit depth : 8 bits
Scan type : Interlaced
Scan order : Top Field First
Compression mode : Lossy
Bits/(Pixel*Frame) : 0.579
Time code of first frame : 01:00:01:00
Time code source : Group of pictures header
GOP, Open/Closed : Open
Stream size : 364 MiB (95%)
Audio
ID : 189 (0xBD)-128 (0x80)
Format : AC-3
Format/Info : Audio Coding 3
Commercial name : Dolby Digital
Muxing mode : DVD-Video
Duration : 8 min 29 s
Bit rate mode : Constant
Bit rate : 192 kb/s
Channel(s) : 2 channels
Channel layout : L R
Sampling rate : 48.0 kHz
Frame rate : 31.250 FPS (1536 SPF)
Bit depth : 16 bits
Compression mode : Lossy
Delay relative to video : -66 ms
Stream size : 11.7 MiB (3%)
Service kind : Complete Main
Menu
General
Complete name : /media/erzsebet/ASSAULT_THAT_ASS_11/VIDEO_TS/VTS_07_0.BUP
Format : DVD Video
Format profile : Program
File size : 26.0 KiB
Duration : 15 min 17 s
Overall bit rate mode : Variable
Overall bit rate : 232 b/s
FileExtension_Invalid : ifo
Video
ID : 224 (0xE0)
Format : MPEG Video
Format version : Version 2
Duration : 15 min 17 s
Bit rate mode : Variable
Width : 720 pixels
Height : 480 pixels
Display aspect ratio : 4:3
Frame rate : 29.970 (29970/1000) FPS
Standard : NTSC
Compression mode : Lossy
Audio
ID : 128 (0x80)
Format : AC-3
Format/Info : Audio Coding 3
Duration : 15 min 17 s
Channel(s) : 2 channels
Sampling rate : 48.0 kHz
Compression mode : Lossy
Language : English
Menu
Duration : 15 min 17 s
00:00:00.000 : Chapter 1
00:02:48.333 : Chapter 2
00:04:25.833 : Chapter 3
00:07:51.366 : Chapter 4
00:11:09.866 : Chapter 5
00:15:17.099 : Chapter 6
List (Audio) : 0
General
Complete name : /media/erzsebet/ASSAULT_THAT_ASS_11/VIDEO_TS/VTS_07_0.IFO
Format : DVD Video
Format profile : Program
File size : 26.0 KiB
Duration : 15 min 17 s
Overall bit rate mode : Variable
Overall bit rate : 232 b/s
Video
ID : 224 (0xE0)
Format : MPEG Video
Format version : Version 2
Duration : 15 min 17 s
Bit rate mode : Variable
Width : 720 pixels
Height : 480 pixels
Display aspect ratio : 4:3
Frame rate : 29.970 (29970/1000) FPS
Standard : NTSC
Compression mode : Lossy
Audio
ID : 128 (0x80)
Format : AC-3
Format/Info : Audio Coding 3
Duration : 15 min 17 s
Channel(s) : 2 channels
Sampling rate : 48.0 kHz
Compression mode : Lossy
Language : English
Menu
Duration : 15 min 17 s
00:00:00.000 : Chapter 1
00:02:48.333 : Chapter 2
00:04:25.833 : Chapter 3
00:07:51.366 : Chapter 4
00:11:09.866 : Chapter 5
00:15:17.099 : Chapter 6
List (Audio) : 0
General
Complete name : /media/erzsebet/ASSAULT_THAT_ASS_11/VIDEO_TS/VTS_07_0.VOB
Format : MPEG-PS
File size : 114 KiB
Duration : 467 ms
Overall bit rate : 2 000 kb/s
Video
ID : 224 (0xE0)
Format : MPEG Video
Format version : Version 2
Format profile : [email protected]
Format settings : CustomMatrix / BVOP
Format settings, BVOP : Yes
Format settings, Matrix : Custom
Format settings, picture structure : Frame
Duration : 467 ms
Bit rate mode : Constant
Maximum bit rate : 2 000 kb/s
Width : 720 pixels
Height : 480 pixels
Display aspect ratio : 4:3
Frame rate : 29.970 (30000/1001) FPS
Standard : NTSC
Color space : YUV
Chroma subsampling : 4:2:0
Bit depth : 8 bits
Scan type : Interlaced
Scan order : Top Field First
Compression mode : Lossy
Time code of first frame : 00:00:00:01
Time code source : Group of pictures header
Text
ID : 189 (0xBD)-32 (0x20)
Format : RLE
Format/Info : Run-length encoding
Muxing mode : DVD-Video
Menu
General
Complete name : /media/erzsebet/ASSAULT_THAT_ASS_11/VIDEO_TS/VTS_07_1.VOB
Format : MPEG-PS
File size : 527 MiB
Duration : 15 min 18 s
Overall bit rate mode : Variable
Overall bit rate : 4 815 kb/s
Video
ID : 224 (0xE0)
Format : MPEG Video
Format version : Version 2
Format profile : [email protected]
Format settings : CustomMatrix / BVOP
Format settings, BVOP : Yes
Format settings, Matrix : Custom
Format settings, GOP : Variable
Format settings, picture structure : Frame
Duration : 15 min 18 s
Bit rate mode : Variable
Bit rate : 4 528 kb/s
Maximum bit rate : 9 800 kb/s
Width : 720 pixels
Height : 480 pixels
Display aspect ratio : 4:3
Frame rate : 29.970 (30000/1001) FPS
Standard : NTSC
Color space : YUV
Chroma subsampling : 4:2:0
Bit depth : 8 bits
Scan type : Interlaced
Scan order : Top Field First
Compression mode : Lossy
Bits/(Pixel*Frame) : 0.437
Time code of first frame : 01:01:19;12
Time code source : Group of pictures header
GOP, Open/Closed : Closed
Stream size : 496 MiB (94%)
Audio
ID : 189 (0xBD)-128 (0x80)
Format : AC-3
Format/Info : Audio Coding 3
Commercial name : Dolby Digital
Muxing mode : DVD-Video
Duration : 15 min 18 s
Bit rate mode : Constant
Bit rate : 192 kb/s
Channel(s) : 2 channels
Channel layout : L R
Sampling rate : 48.0 kHz
Frame rate : 31.250 FPS (1536 SPF)
Bit depth : 16 bits
Compression mode : Lossy
Stream size : 21.0 MiB (4%)
Service kind : Complete Main
Menu
[erzsebet.org].t2924609.torrent
Торрент: Зарегистрирован [ 2020-06-30 13:05 ]

Скачать .torrent

Скачать

33 KB

Статус: проверено
Скачан: 1 раз
Размер: 6.63 GB
Поблагодарили: 0  Спасибо
terms.php
[Профиль]  [ЛС] 
Показать сообщения:    
Ответить на тему

Текущее время: 12-Июл 03:56

Часовой пояс: UTC + 3



Вы не можете начинать темы
Вы не можете отвечать на сообщения
Вы не можете редактировать свои сообщения
Вы не можете удалять свои сообщения
Вы не можете голосовать в опросах
Вы не можете прикреплять файлы к сообщениям
Вы можете скачивать файлы