Glazed And Confused 1 (William H. / Elegant Angel) [2003, Gonzo, BlowGangBang, Oral, Cumshots, Facials, Blowjob, DeepThroat, Gang Bang, DVD9]

Ответить на тему
Статистика раздачи
Размер:  6.56 GB   |    Зарегистрирован:  7 дней   |    Скачан:  3 раза
Сидов:  3   Личеров:  1  
 
 
Автор Сообщение

erzsebet ®

Стаж: 18 лет

Сообщений: 485795

Откуда: Венгрия

Создавать темы 30-Июл-2020 17:08  |  Сменить автора

[Цитировать] 

Glazed And Confused 1


Title: Glazed And Confused 1
Release Date: 2013
Country: USA
Genres: Gonzo, BlowGangBang, Oral, Cumshots, Facials, Blowjob, DeepThroat, Gang Bang
Language: English
Duration: 01:57:32
Director: William H.
Studio / Distributor: Elegant Angel
Starring:
Scene 1. Lana Moore, Rebecca Bardoux, Arnold Schwartzenpecker, Dick Nasty, Jake Malone, Trevor Thompson, Tyler Wood
Scene 2. Angel Long, Brett Rockman, Frank Gun, Gino Greco, Rick Masters, Trevor Thompson
Scene 3. Loni, Gino Greco
Scene 4. Ashley Blue, Arnold Schwartzenpecker, Dick Nasty, Frazer Fox, Kyle Stone, Rick Masters, Tyler Wood
Scene 5. Gia Jordan, Arnold Schwartzenpecker, Jake Malone, Kyle Stone, Rick Masters, Tyler Wood
Scene 6. Caitlin Cox, Arnold Schwartzenpecker, Dick Nasty, Dick Tracy, Frazer Fox, Tyler Wood
Bonus. Julie Night, Billy Banks, Brett Rockman, Chris Charming, Dick Nasty, Trevor Thompson
Description:
These cock lovers are ready to dole out some serious head. It's a cum drenched panoply of penis in mouth. And these women love to get the creamy end of the deal. If you like cock sucking, you're going to love this film. From blowjobs to face fucking and everything in between, this movie will have everyone glazed and confused!
Quality: DVD9
Format: DVD-Video

MediaInfo

General
Complete name : /media/erzsebet/GLAZED_AND_CONFUSED/VIDEO_TS/VIDEO_TS.BUP
Format : DVD Video
Format profile : Menu
File size : 22.0 KiB
Overall bit rate mode : Variable
FileExtension_Invalid : ifo
Video
ID : 224 (0xE0)
Format : MPEG Video
Format version : Version 2
Bit rate mode : Variable
Width : 720 pixels
Height : 480 pixels
Display aspect ratio : 4:3
Frame rate : 29.970 (29970/1000) FPS
Standard : NTSC
Compression mode : Lossy
Text
Format : RLE
Format/Info : Run-length encoding
Bit depth : 2 bits
General
Complete name : /media/erzsebet/GLAZED_AND_CONFUSED/VIDEO_TS/VIDEO_TS.IFO
Format : DVD Video
Format profile : Menu
File size : 22.0 KiB
Overall bit rate mode : Variable
Video
ID : 224 (0xE0)
Format : MPEG Video
Format version : Version 2
Bit rate mode : Variable
Width : 720 pixels
Height : 480 pixels
Display aspect ratio : 4:3
Frame rate : 29.970 (29970/1000) FPS
Standard : NTSC
Compression mode : Lossy
Text
Format : RLE
Format/Info : Run-length encoding
Bit depth : 2 bits
General
Complete name : /media/erzsebet/GLAZED_AND_CONFUSED/VIDEO_TS/VIDEO_TS.VOB
Format : MPEG-PS
File size : 114 KiB
Duration : 467 ms
Overall bit rate : 2 000 kb/s
Video
ID : 224 (0xE0)
Format : MPEG Video
Format version : Version 2
Format profile : [email protected]
Format settings : CustomMatrix / BVOP
Format settings, BVOP : Yes
Format settings, Matrix : Custom
Format settings, picture structure : Frame
Duration : 467 ms
Bit rate mode : Constant
Maximum bit rate : 2 000 kb/s
Width : 720 pixels
Height : 480 pixels
Display aspect ratio : 4:3
Frame rate : 29.970 (30000/1001) FPS
Standard : NTSC
Color space : YUV
Chroma subsampling : 4:2:0
Bit depth : 8 bits
Scan type : Interlaced
Scan order : Top Field First
Compression mode : Lossy
Time code of first frame : 00:00:00:01
Time code source : Group of pictures header
Text
ID : 189 (0xBD)-32 (0x20)
Format : RLE
Format/Info : Run-length encoding
Muxing mode : DVD-Video
Menu
General
Complete name : /media/erzsebet/GLAZED_AND_CONFUSED/VIDEO_TS/VTS_01_0.BUP
Format : DVD Video
Format profile : Program
File size : 88.0 KiB
Duration : 1 h 57 min
Overall bit rate mode : Variable
Overall bit rate : 102 b/s
FileExtension_Invalid : ifo
Video
ID : 224 (0xE0)
Format : MPEG Video
Format version : Version 2
Duration : 1 h 57 min
Bit rate mode : Variable
Width : 720 pixels
Height : 480 pixels
Display aspect ratio : 4:3
Frame rate : 29.970 (29970/1000) FPS
Standard : NTSC
Compression mode : Lossy
Audio #1
ID : 128 (0x80)
Format : AC-3
Format/Info : Audio Coding 3
Duration : 1 h 57 min
Channel(s) : 2 channels
Sampling rate : 48.0 kHz
Compression mode : Lossy
Language : English
Audio #2
Format : AC-3
Format/Info : Audio Coding 3
Duration : 1 h 57 min
Channel(s) : 6 channels
Sampling rate : 48.0 kHz
Compression mode : Lossy
Language : English
Audio #3
Format : AC-3
Format/Info : Audio Coding 3
Duration : 1 h 57 min
Channel(s) : 6 channels
Sampling rate : 48.0 kHz
Compression mode : Lossy
Language : English
Audio #4
Format : AC-3
Format/Info : Audio Coding 3
Duration : 1 h 57 min
Channel(s) : 6 channels
Sampling rate : 48.0 kHz
Compression mode : Lossy
Language : English
Audio #5
Format : AC-3
Format/Info : Audio Coding 3
Duration : 1 h 57 min
Channel(s) : 6 channels
Sampling rate : 48.0 kHz
Compression mode : Lossy
Language : English
Audio #6
Format : AC-3
Format/Info : Audio Coding 3
Duration : 1 h 57 min
Channel(s) : 6 channels
Sampling rate : 48.0 kHz
Compression mode : Lossy
Language : English
Audio #7
Format : AC-3
Format/Info : Audio Coding 3
Duration : 1 h 57 min
Channel(s) : 6 channels
Sampling rate : 48.0 kHz
Compression mode : Lossy
Language : English
Audio #8
Format : AC-3
Format/Info : Audio Coding 3
Duration : 1 h 57 min
Channel(s) : 6 channels
Sampling rate : 48.0 kHz
Compression mode : Lossy
Language : English
Text #1
Format : RLE
Format/Info : Run-length encoding
Bit depth : 2 bits
Text #2
Format : RLE
Format/Info : Run-length encoding
Bit depth : 2 bits
Text #3
Format : RLE
Format/Info : Run-length encoding
Bit depth : 2 bits
Text #4
Format : RLE
Format/Info : Run-length encoding
Bit depth : 2 bits
Text #5
Format : RLE
Format/Info : Run-length encoding
Bit depth : 2 bits
Text #6
Format : RLE
Format/Info : Run-length encoding
Bit depth : 2 bits
Text #7
Format : RLE
Format/Info : Run-length encoding
Bit depth : 2 bits
Text #8
Format : RLE
Format/Info : Run-length encoding
Bit depth : 2 bits
Text #9
Format : RLE
Format/Info : Run-length encoding
Bit depth : 2 bits
Text #10
Format : RLE
Format/Info : Run-length encoding
Bit depth : 2 bits
Text #11
Format : RLE
Format/Info : Run-length encoding
Bit depth : 2 bits
Text #12
Format : RLE
Format/Info : Run-length encoding
Bit depth : 2 bits
Text #13
Format : RLE
Format/Info : Run-length encoding
Bit depth : 2 bits
Text #14
Format : RLE
Format/Info : Run-length encoding
Bit depth : 2 bits
Text #15
Format : RLE
Format/Info : Run-length encoding
Bit depth : 2 bits
Text #16
Format : RLE
Format/Info : Run-length encoding
Bit depth : 2 bits
Text #17
Format : RLE
Format/Info : Run-length encoding
Bit depth : 2 bits
Text #18
Format : RLE
Format/Info : Run-length encoding
Bit depth : 2 bits
Text #19
Format : RLE
Format/Info : Run-length encoding
Bit depth : 2 bits
Text #20
Format : RLE
Format/Info : Run-length encoding
Bit depth : 2 bits
Text #21
Format : RLE
Format/Info : Run-length encoding
Bit depth : 2 bits
Text #22
Format : RLE
Format/Info : Run-length encoding
Bit depth : 2 bits
Text #23
Format : RLE
Format/Info : Run-length encoding
Bit depth : 2 bits
Text #24
Format : RLE
Format/Info : Run-length encoding
Bit depth : 2 bits
Text #25
Format : RLE
Format/Info : Run-length encoding
Bit depth : 2 bits
Text #26
Format : RLE
Format/Info : Run-length encoding
Bit depth : 2 bits
Text #27
Format : RLE
Format/Info : Run-length encoding
Bit depth : 2 bits
Text #28
Format : RLE
Format/Info : Run-length encoding
Bit depth : 2 bits
Text #29
Format : RLE
Format/Info : Run-length encoding
Bit depth : 2 bits
Text #30
Format : RLE
Format/Info : Run-length encoding
Bit depth : 2 bits
Text #31
Format : RLE
Format/Info : Run-length encoding
Bit depth : 2 bits
Text #32
Format : RLE
Format/Info : Run-length encoding
Bit depth : 2 bits
Menu
Duration : 1 h 57 min
00:00:00.000 : Chapter 1
00:01:15.500 : Chapter 2
00:19:24.500 : Chapter 3
00:36:54.000 : Chapter 4
00:54:41.000 : Chapter 5
01:15:42.500 : Chapter 6
01:34:51.000 : Chapter 7
01:57:23.500 : Chapter 8
01:57:49.500 : Chapter 9
List (Audio) : 0
General
Complete name : /media/erzsebet/GLAZED_AND_CONFUSED/VIDEO_TS/VTS_01_0.IFO
Format : DVD Video
Format profile : Program
File size : 88.0 KiB
Duration : 1 h 57 min
Overall bit rate mode : Variable
Overall bit rate : 102 b/s
Video
ID : 224 (0xE0)
Format : MPEG Video
Format version : Version 2
Duration : 1 h 57 min
Bit rate mode : Variable
Width : 720 pixels
Height : 480 pixels
Display aspect ratio : 4:3
Frame rate : 29.970 (29970/1000) FPS
Standard : NTSC
Compression mode : Lossy
Audio #1
ID : 128 (0x80)
Format : AC-3
Format/Info : Audio Coding 3
Duration : 1 h 57 min
Channel(s) : 2 channels
Sampling rate : 48.0 kHz
Compression mode : Lossy
Language : English
Audio #2
Format : AC-3
Format/Info : Audio Coding 3
Duration : 1 h 57 min
Channel(s) : 6 channels
Sampling rate : 48.0 kHz
Compression mode : Lossy
Language : English
Audio #3
Format : AC-3
Format/Info : Audio Coding 3
Duration : 1 h 57 min
Channel(s) : 6 channels
Sampling rate : 48.0 kHz
Compression mode : Lossy
Language : English
Audio #4
Format : AC-3
Format/Info : Audio Coding 3
Duration : 1 h 57 min
Channel(s) : 6 channels
Sampling rate : 48.0 kHz
Compression mode : Lossy
Language : English
Audio #5
Format : AC-3
Format/Info : Audio Coding 3
Duration : 1 h 57 min
Channel(s) : 6 channels
Sampling rate : 48.0 kHz
Compression mode : Lossy
Language : English
Audio #6
Format : AC-3
Format/Info : Audio Coding 3
Duration : 1 h 57 min
Channel(s) : 6 channels
Sampling rate : 48.0 kHz
Compression mode : Lossy
Language : English
Audio #7
Format : AC-3
Format/Info : Audio Coding 3
Duration : 1 h 57 min
Channel(s) : 6 channels
Sampling rate : 48.0 kHz
Compression mode : Lossy
Language : English
Audio #8
Format : AC-3
Format/Info : Audio Coding 3
Duration : 1 h 57 min
Channel(s) : 6 channels
Sampling rate : 48.0 kHz
Compression mode : Lossy
Language : English
Text #1
Format : RLE
Format/Info : Run-length encoding
Bit depth : 2 bits
Text #2
Format : RLE
Format/Info : Run-length encoding
Bit depth : 2 bits
Text #3
Format : RLE
Format/Info : Run-length encoding
Bit depth : 2 bits
Text #4
Format : RLE
Format/Info : Run-length encoding
Bit depth : 2 bits
Text #5
Format : RLE
Format/Info : Run-length encoding
Bit depth : 2 bits
Text #6
Format : RLE
Format/Info : Run-length encoding
Bit depth : 2 bits
Text #7
Format : RLE
Format/Info : Run-length encoding
Bit depth : 2 bits
Text #8
Format : RLE
Format/Info : Run-length encoding
Bit depth : 2 bits
Text #9
Format : RLE
Format/Info : Run-length encoding
Bit depth : 2 bits
Text #10
Format : RLE
Format/Info : Run-length encoding
Bit depth : 2 bits
Text #11
Format : RLE
Format/Info : Run-length encoding
Bit depth : 2 bits
Text #12
Format : RLE
Format/Info : Run-length encoding
Bit depth : 2 bits
Text #13
Format : RLE
Format/Info : Run-length encoding
Bit depth : 2 bits
Text #14
Format : RLE
Format/Info : Run-length encoding
Bit depth : 2 bits
Text #15
Format : RLE
Format/Info : Run-length encoding
Bit depth : 2 bits
Text #16
Format : RLE
Format/Info : Run-length encoding
Bit depth : 2 bits
Text #17
Format : RLE
Format/Info : Run-length encoding
Bit depth : 2 bits
Text #18
Format : RLE
Format/Info : Run-length encoding
Bit depth : 2 bits
Text #19
Format : RLE
Format/Info : Run-length encoding
Bit depth : 2 bits
Text #20
Format : RLE
Format/Info : Run-length encoding
Bit depth : 2 bits
Text #21
Format : RLE
Format/Info : Run-length encoding
Bit depth : 2 bits
Text #22
Format : RLE
Format/Info : Run-length encoding
Bit depth : 2 bits
Text #23
Format : RLE
Format/Info : Run-length encoding
Bit depth : 2 bits
Text #24
Format : RLE
Format/Info : Run-length encoding
Bit depth : 2 bits
Text #25
Format : RLE
Format/Info : Run-length encoding
Bit depth : 2 bits
Text #26
Format : RLE
Format/Info : Run-length encoding
Bit depth : 2 bits
Text #27
Format : RLE
Format/Info : Run-length encoding
Bit depth : 2 bits
Text #28
Format : RLE
Format/Info : Run-length encoding
Bit depth : 2 bits
Text #29
Format : RLE
Format/Info : Run-length encoding
Bit depth : 2 bits
Text #30
Format : RLE
Format/Info : Run-length encoding
Bit depth : 2 bits
Text #31
Format : RLE
Format/Info : Run-length encoding
Bit depth : 2 bits
Text #32
Format : RLE
Format/Info : Run-length encoding
Bit depth : 2 bits
Menu
Duration : 1 h 57 min
00:00:00.000 : Chapter 1
00:01:15.500 : Chapter 2
00:19:24.500 : Chapter 3
00:36:54.000 : Chapter 4
00:54:41.000 : Chapter 5
01:15:42.500 : Chapter 6
01:34:51.000 : Chapter 7
01:57:23.500 : Chapter 8
01:57:49.500 : Chapter 9
List (Audio) : 0
General
Complete name : /media/erzsebet/GLAZED_AND_CONFUSED/VIDEO_TS/VTS_01_0.VOB
Format : MPEG-PS
File size : 39.0 MiB
Duration : 29 s 984 ms
Overall bit rate mode : Variable
Overall bit rate : 10.9 Mb/s
Video
ID : 224 (0xE0)
Format : MPEG Video
Format version : Version 2
Format profile : [email protected]
Format settings : CustomMatrix / BVOP
Format settings, BVOP : Yes
Format settings, Matrix : Custom
Format settings, GOP : M=3, N=15
Format settings, picture structure : Frame
Duration : 33 ms
Bit rate mode : Variable
Bit rate : 10.5 Mb/s
Maximum bit rate : 5 500 kb/s
Width : 720 pixels
Height : 480 pixels
Display aspect ratio : 4:3
Frame rate : 29.970 (30000/1001) FPS
Standard : NTSC
Color space : YUV
Chroma subsampling : 4:2:0
Bit depth : 8 bits
Scan type : Interlaced
Scan order : Top Field First
Compression mode : Lossy
Bits/(Pixel*Frame) : 1.013
Time code of first frame : 01:00:00:00
Time code source : Group of pictures header
GOP, Open/Closed : Closed
Stream size : 42.7 KiB (0%)
Audio
ID : 189 (0xBD)-128 (0x80)
Format : AC-3
Format/Info : Audio Coding 3
Commercial name : Dolby Digital
Muxing mode : DVD-Video
Duration : 29 s 984 ms
Bit rate mode : Constant
Bit rate : 192 kb/s
Channel(s) : 2 channels
Channel layout : L R
Sampling rate : 48.0 kHz
Frame rate : 31.250 FPS (1536 SPF)
Bit depth : 16 bits
Compression mode : Lossy
Stream size : 703 KiB (2%)
Service kind : Complete Main
Text
ID : 189 (0xBD)-32 (0x20)
Format : RLE
Format/Info : Run-length encoding
Muxing mode : DVD-Video
Menu
General
Complete name : /media/erzsebet/GLAZED_AND_CONFUSED/VIDEO_TS/VTS_01_1.VOB
Format : MPEG-PS
File size : 1 024 MiB
Duration : 25 min 51 s
Overall bit rate mode : Variable
Overall bit rate : 5 536 kb/s
Video
ID : 224 (0xE0)
Format : MPEG Video
Format version : Version 2
Format profile : [email protected]
Format settings : CustomMatrix / BVOP
Format settings, BVOP : Yes
Format settings, Matrix : Custom
Format settings, GOP : M=3, N=15
Format settings, picture structure : Frame
Duration : 25 min 51 s
Bit rate mode : Variable
Bit rate : 5 234 kb/s
Maximum bit rate : 6 000 kb/s
Width : 720 pixels
Height : 480 pixels
Display aspect ratio : 4:3
Frame rate : 29.970 (30000/1001) FPS
Standard : NTSC
Color space : YUV
Chroma subsampling : 4:2:0
Bit depth : 8 bits
Scan type : Interlaced
Scan order : Top Field First
Compression mode : Lossy
Bits/(Pixel*Frame) : 0.505
Time code of first frame : 10:04:56;00
Time code source : Group of pictures header
GOP, Open/Closed : Closed
Stream size : 968 MiB (95%)
Audio
ID : 189 (0xBD)-128 (0x80)
Format : AC-3
Format/Info : Audio Coding 3
Commercial name : Dolby Digital
Muxing mode : DVD-Video
Duration : 25 min 51 s
Bit rate mode : Constant
Bit rate : 192 kb/s
Channel(s) : 2 channels
Channel layout : L R
Sampling rate : 48.0 kHz
Frame rate : 31.250 FPS (1536 SPF)
Bit depth : 16 bits
Compression mode : Lossy
Stream size : 35.5 MiB (3%)
Service kind : Complete Main
Menu
General
Complete name : /media/erzsebet/GLAZED_AND_CONFUSED/VIDEO_TS/VTS_01_2.VOB
Format : MPEG-PS
File size : 1 024 MiB
Duration : 25 min 39 s
Overall bit rate mode : Variable
Overall bit rate : 5 578 kb/s
Video
ID : 224 (0xE0)
Format : MPEG Video
Format version : Version 2
Format profile : [email protected]
Format settings : CustomMatrix / BVOP
Format settings, BVOP : Yes
Format settings, Matrix : Custom
Format settings, GOP : M=3, N=15
Format settings, picture structure : Frame
Duration : 25 min 39 s
Bit rate mode : Variable
Bit rate : 5 275 kb/s
Maximum bit rate : 6 000 kb/s
Width : 720 pixels
Height : 480 pixels
Display aspect ratio : 4:3
Frame rate : 29.970 (30000/1001) FPS
Standard : NTSC
Color space : YUV
Chroma subsampling : 4:2:0
Bit depth : 8 bits
Scan type : Interlaced
Scan order : Top Field First
Compression mode : Lossy
Bits/(Pixel*Frame) : 0.509
Time code of first frame : 10:30:47;16
Time code source : Group of pictures header
GOP, Open/Closed : Closed
Stream size : 968 MiB (95%)
Audio
ID : 189 (0xBD)-128 (0x80)
Format : AC-3
Format/Info : Audio Coding 3
Commercial name : Dolby Digital
Muxing mode : DVD-Video
Duration : 25 min 39 s
Bit rate mode : Constant
Bit rate : 192 kb/s
Channel(s) : 2 channels
Channel layout : L R
Sampling rate : 48.0 kHz
Frame rate : 31.250 FPS (1536 SPF)
Bit depth : 16 bits
Compression mode : Lossy
Delay relative to video : -382 ms
Stream size : 35.2 MiB (3%)
Service kind : Complete Main
Menu
General
Complete name : /media/erzsebet/GLAZED_AND_CONFUSED/VIDEO_TS/VTS_01_3.VOB
Format : MPEG-PS
File size : 1 024 MiB
Duration : 25 min 40 s
Overall bit rate mode : Variable
Overall bit rate : 5 577 kb/s
Video
ID : 224 (0xE0)
Format : MPEG Video
Format version : Version 2
Format profile : [email protected]
Format settings : CustomMatrix / BVOP
Format settings, BVOP : Yes
Format settings, Matrix : Custom
Format settings, GOP : M=3, N=15
Format settings, picture structure : Frame
Duration : 25 min 39 s
Bit rate mode : Variable
Bit rate : 5 274 kb/s
Maximum bit rate : 6 000 kb/s
Width : 720 pixels
Height : 480 pixels
Display aspect ratio : 4:3
Frame rate : 29.970 (30000/1001) FPS
Standard : NTSC
Color space : YUV
Chroma subsampling : 4:2:0
Bit depth : 8 bits
Scan type : Interlaced
Scan order : Top Field First
Compression mode : Lossy
Bits/(Pixel*Frame) : 0.509
Time code of first frame : 10:56:27;19
Time code source : Group of pictures header
GOP, Open/Closed : Closed
Stream size : 968 MiB (95%)
Audio
ID : 189 (0xBD)-128 (0x80)
Format : AC-3
Format/Info : Audio Coding 3
Commercial name : Dolby Digital
Muxing mode : DVD-Video
Duration : 25 min 40 s
Bit rate mode : Constant
Bit rate : 192 kb/s
Channel(s) : 2 channels
Channel layout : L R
Sampling rate : 48.0 kHz
Frame rate : 31.250 FPS (1536 SPF)
Bit depth : 16 bits
Compression mode : Lossy
Delay relative to video : -549 ms
Stream size : 35.2 MiB (3%)
Service kind : Complete Main
Menu
General
Complete name : /media/erzsebet/GLAZED_AND_CONFUSED/VIDEO_TS/VTS_01_4.VOB
Format : MPEG-PS
File size : 1 024 MiB
Duration : 25 min 39 s
Overall bit rate mode : Variable
Overall bit rate : 5 578 kb/s
Video
ID : 224 (0xE0)
Format : MPEG Video
Format version : Version 2
Format profile : [email protected]
Format settings : CustomMatrix / BVOP
Format settings, BVOP : Yes
Format settings, Matrix : Custom
Format settings, GOP : M=3, N=15
Format settings, picture structure : Frame
Duration : 25 min 39 s
Bit rate mode : Variable
Bit rate : 5 275 kb/s
Maximum bit rate : 6 000 kb/s
Width : 720 pixels
Height : 480 pixels
Display aspect ratio : 4:3
Frame rate : 29.970 (30000/1001) FPS
Standard : NTSC
Color space : YUV
Chroma subsampling : 4:2:0
Bit depth : 8 bits
Scan type : Interlaced
Scan order : Top Field First
Compression mode : Lossy
Bits/(Pixel*Frame) : 0.509
Time code of first frame : 11:22:07;20
Time code source : Group of pictures header
GOP, Open/Closed : Closed
Stream size : 968 MiB (95%)
Audio
ID : 189 (0xBD)-128 (0x80)
Format : AC-3
Format/Info : Audio Coding 3
Commercial name : Dolby Digital
Muxing mode : DVD-Video
Duration : 25 min 39 s
Bit rate mode : Constant
Bit rate : 192 kb/s
Channel(s) : 2 channels
Channel layout : L R
Sampling rate : 48.0 kHz
Frame rate : 31.250 FPS (1536 SPF)
Bit depth : 16 bits
Compression mode : Lossy
Delay relative to video : -523 ms
Stream size : 35.2 MiB (3%)
Service kind : Complete Main
Menu
General
Complete name : /media/erzsebet/GLAZED_AND_CONFUSED/VIDEO_TS/VTS_01_5.VOB
Format : MPEG-PS
File size : 603 MiB
Duration : 15 min 6 s
Overall bit rate mode : Variable
Overall bit rate : 5 578 kb/s
Video
ID : 224 (0xE0)
Format : MPEG Video
Format version : Version 2
Format profile : [email protected]
Format settings : CustomMatrix / BVOP
Format settings, BVOP : Yes
Format settings, Matrix : Custom
Format settings, GOP : M=3, N=15
Format settings, picture structure : Frame
Duration : 15 min 6 s
Bit rate mode : Variable
Bit rate : 5 275 kb/s
Maximum bit rate : 6 000 kb/s
Width : 720 pixels
Height : 480 pixels
Display aspect ratio : 4:3
Frame rate : 29.970 (30000/1001) FPS
Standard : NTSC
Color space : YUV
Chroma subsampling : 4:2:0
Bit depth : 8 bits
Scan type : Interlaced
Scan order : Top Field First
Compression mode : Lossy
Bits/(Pixel*Frame) : 0.509
Time code of first frame : 11:47:47;06
Time code source : Group of pictures header
GOP, Open/Closed : Closed
Stream size : 570 MiB (95%)
Audio
ID : 189 (0xBD)-128 (0x80)
Format : AC-3
Format/Info : Audio Coding 3
Commercial name : Dolby Digital
Muxing mode : DVD-Video
Duration : 15 min 6 s
Bit rate mode : Constant
Bit rate : 192 kb/s
Channel(s) : 2 channels
Channel layout : L R
Sampling rate : 48.0 kHz
Frame rate : 31.250 FPS (1536 SPF)
Bit depth : 16 bits
Compression mode : Lossy
Delay relative to video : -349 ms
Stream size : 20.8 MiB (3%)
Service kind : Complete Main
Menu
General
Complete name : /media/erzsebet/GLAZED_AND_CONFUSED/VIDEO_TS/VTS_02_0.BUP
Format : DVD Video
Format profile : Program
File size : 18.0 KiB
Duration : 2 s 0 ms
Overall bit rate mode : Variable
Overall bit rate : 73.7 kb/s
FileExtension_Invalid : ifo
Video
ID : 224 (0xE0)
Format : MPEG Video
Format version : Version 2
Duration : 2 s 2 ms
Bit rate mode : Variable
Width : 720 pixels
Height : 480 pixels
Display aspect ratio : 4:3
Frame rate : 29.970 (29970/1000) FPS
Standard : NTSC
Compression mode : Lossy
Audio
ID : 128 (0x80)
Format : AC-3
Format/Info : Audio Coding 3
Duration : 2 s 0 ms
Channel(s) : 2 channels
Sampling rate : 48.0 kHz
Compression mode : Lossy
Language : English
Menu
Duration : 2 s 0 ms
00:00:00.000 : Chapter 1
00:00:00.500 : Chapter 2
List (Audio) : 0
General
Complete name : /media/erzsebet/GLAZED_AND_CONFUSED/VIDEO_TS/VTS_02_0.IFO
Format : DVD Video
Format profile : Program
File size : 18.0 KiB
Duration : 2 s 0 ms
Overall bit rate mode : Variable
Overall bit rate : 73.7 kb/s
Video
ID : 224 (0xE0)
Format : MPEG Video
Format version : Version 2
Duration : 2 s 2 ms
Bit rate mode : Variable
Width : 720 pixels
Height : 480 pixels
Display aspect ratio : 4:3
Frame rate : 29.970 (29970/1000) FPS
Standard : NTSC
Compression mode : Lossy
Audio
ID : 128 (0x80)
Format : AC-3
Format/Info : Audio Coding 3
Duration : 2 s 0 ms
Channel(s) : 2 channels
Sampling rate : 48.0 kHz
Compression mode : Lossy
Language : English
Menu
Duration : 2 s 0 ms
00:00:00.000 : Chapter 1
00:00:00.500 : Chapter 2
List (Audio) : 0
General
Complete name : /media/erzsebet/GLAZED_AND_CONFUSED/VIDEO_TS/VTS_02_0.VOB
Format : MPEG-PS
File size : 114 KiB
Duration : 467 ms
Overall bit rate : 2 000 kb/s
Video
ID : 224 (0xE0)
Format : MPEG Video
Format version : Version 2
Format profile : [email protected]
Format settings : CustomMatrix / BVOP
Format settings, BVOP : Yes
Format settings, Matrix : Custom
Format settings, picture structure : Frame
Duration : 467 ms
Bit rate mode : Constant
Maximum bit rate : 2 000 kb/s
Width : 720 pixels
Height : 480 pixels
Display aspect ratio : 4:3
Frame rate : 29.970 (30000/1001) FPS
Standard : NTSC
Color space : YUV
Chroma subsampling : 4:2:0
Bit depth : 8 bits
Scan type : Interlaced
Scan order : Top Field First
Compression mode : Lossy
Time code of first frame : 00:00:00:01
Time code source : Group of pictures header
Text
ID : 189 (0xBD)-32 (0x20)
Format : RLE
Format/Info : Run-length encoding
Muxing mode : DVD-Video
Menu
General
Complete name : /media/erzsebet/GLAZED_AND_CONFUSED/VIDEO_TS/VTS_02_1.VOB
Format : MPEG-PS
File size : 170 KiB
Duration : 2 s 2 ms
Overall bit rate mode : Variable
Overall bit rate : 696 kb/s
Video
ID : 224 (0xE0)
Format : MPEG Video
Format version : Version 2
Format profile : [email protected]
Format settings : CustomMatrix / BVOP
Format settings, BVOP : Yes
Format settings, Matrix : Custom
Format settings, picture structure : Frame
Duration : 2 s 2 ms
Bit rate mode : Variable
Bit rate : 490 kb/s
Maximum bit rate : 8 000 kb/s
Width : 720 pixels
Height : 480 pixels
Display aspect ratio : 4:3
Frame rate : 29.970 (30000/1001) FPS
Standard : NTSC
Color space : YUV
Chroma subsampling : 4:2:0
Bit depth : 8 bits
Scan type : Interlaced
Scan order : Top Field First
Compression mode : Lossy
Bits/(Pixel*Frame) : 0.047
Time code of first frame : 01:48:11:00
Time code source : Group of pictures header
GOP, Open/Closed : Closed
Stream size : 120 KiB (70%)
Audio
ID : 189 (0xBD)-128 (0x80)
Format : AC-3
Format/Info : Audio Coding 3
Commercial name : Dolby Digital
Muxing mode : DVD-Video
Duration : 1 s 984 ms
Bit rate mode : Constant
Bit rate : 192 kb/s
Channel(s) : 2 channels
Channel layout : L R
Sampling rate : 48.0 kHz
Frame rate : 31.250 FPS (1536 SPF)
Bit depth : 16 bits
Compression mode : Lossy
Stream size : 46.5 KiB (27%)
Service kind : Complete Main
Menu
General
Complete name : /media/erzsebet/GLAZED_AND_CONFUSED/VIDEO_TS/VTS_03_0.BUP
Format : DVD Video
Format profile : Program
File size : 18.0 KiB
Duration : 1 s 66 ms
Overall bit rate mode : Variable
Overall bit rate : 138 kb/s
FileExtension_Invalid : ifo
Video
ID : 224 (0xE0)
Format : MPEG Video
Format version : Version 2
Duration : 1 s 68 ms
Bit rate mode : Variable
Bit rate : 126 kb/s
Width : 720 pixels
Height : 480 pixels
Display aspect ratio : 4:3
Frame rate : 29.970 (29970/1000) FPS
Standard : NTSC
Compression mode : Lossy
Bits/(Pixel*Frame) : 0.012
Stream size : 16.4 KiB (91%)
Menu
Duration : 1 s 66 ms
00:00:00.000 : Chapter 1
General
Complete name : /media/erzsebet/GLAZED_AND_CONFUSED/VIDEO_TS/VTS_03_0.IFO
Format : DVD Video
Format profile : Program
File size : 18.0 KiB
Duration : 1 s 66 ms
Overall bit rate mode : Variable
Overall bit rate : 138 kb/s
Video
ID : 224 (0xE0)
Format : MPEG Video
Format version : Version 2
Duration : 1 s 68 ms
Bit rate mode : Variable
Bit rate : 126 kb/s
Width : 720 pixels
Height : 480 pixels
Display aspect ratio : 4:3
Frame rate : 29.970 (29970/1000) FPS
Standard : NTSC
Compression mode : Lossy
Bits/(Pixel*Frame) : 0.012
Stream size : 16.4 KiB (91%)
Menu
Duration : 1 s 66 ms
00:00:00.000 : Chapter 1
General
Complete name : /media/erzsebet/GLAZED_AND_CONFUSED/VIDEO_TS/VTS_03_0.VOB
Format : MPEG-PS
File size : 114 KiB
Duration : 467 ms
Overall bit rate : 2 000 kb/s
Video
ID : 224 (0xE0)
Format : MPEG Video
Format version : Version 2
Format profile : [email protected]
Format settings : CustomMatrix / BVOP
Format settings, BVOP : Yes
Format settings, Matrix : Custom
Format settings, picture structure : Frame
Duration : 467 ms
Bit rate mode : Constant
Maximum bit rate : 2 000 kb/s
Width : 720 pixels
Height : 480 pixels
Display aspect ratio : 4:3
Frame rate : 29.970 (30000/1001) FPS
Standard : NTSC
Color space : YUV
Chroma subsampling : 4:2:0
Bit depth : 8 bits
Scan type : Interlaced
Scan order : Top Field First
Compression mode : Lossy
Time code of first frame : 00:00:00:01
Time code source : Group of pictures header
Text
ID : 189 (0xBD)-32 (0x20)
Format : RLE
Format/Info : Run-length encoding
Muxing mode : DVD-Video
Menu
General
Complete name : /media/erzsebet/GLAZED_AND_CONFUSED/VIDEO_TS/VTS_03_1.VOB
Format : MPEG-PS
File size : 904 KiB
Duration : 1 s 68 ms
Overall bit rate mode : Constant
Overall bit rate : 6 934 kb/s
Video
ID : 224 (0xE0)
Format : MPEG Video
Format version : Version 2
Format profile : [email protected]
Format settings : CustomMatrix / BVOP
Format settings, BVOP : Yes
Format settings, Matrix : Custom
Format settings, picture structure : Frame
Duration : 1 s 68 ms
Bit rate mode : Constant
Bit rate : 6 796 kb/s
Maximum bit rate : 7 000 kb/s
Width : 720 pixels
Height : 480 pixels
Display aspect ratio : 4:3
Frame rate : 29.970 (30000/1001) FPS
Standard : NTSC
Color space : YUV
Chroma subsampling : 4:2:0
Bit depth : 8 bits
Scan type : Interlaced
Scan order : Top Field First
Compression mode : Lossy
Bits/(Pixel*Frame) : 0.656
Time code of first frame : 00:59:49;00
Time code source : Group of pictures header
Stream size : 886 KiB (98%)
Menu
General
Complete name : /media/erzsebet/GLAZED_AND_CONFUSED/VIDEO_TS/VTS_04_0.BUP
Format : DVD Video
Format profile : Program
File size : 18.0 KiB
Duration : 18 s 66 ms
Overall bit rate mode : Variable
Overall bit rate : 8 162 b/s
FileExtension_Invalid : ifo
Video
ID : 224 (0xE0)
Format : MPEG Video
Format version : Version 2
Duration : 18 s 51 ms
Bit rate mode : Variable
Width : 720 pixels
Height : 480 pixels
Display aspect ratio : 4:3
Frame rate : 29.970 (29970/1000) FPS
Standard : NTSC
Compression mode : Lossy
Audio
ID : 128 (0x80)
Format : AC-3
Format/Info : Audio Coding 3
Duration : 18 s 66 ms
Channel(s) : 2 channels
Sampling rate : 48.0 kHz
Compression mode : Lossy
Language : English
Menu
Duration : 18 s 66 ms
00:00:00.000 : Chapter 1
00:00:17.000 : Chapter 2
List (Audio) : 0
General
Complete name : /media/erzsebet/GLAZED_AND_CONFUSED/VIDEO_TS/VTS_04_0.IFO
Format : DVD Video
Format profile : Program
File size : 18.0 KiB
Duration : 18 s 66 ms
Overall bit rate mode : Variable
Overall bit rate : 8 162 b/s
Video
ID : 224 (0xE0)
Format : MPEG Video
Format version : Version 2
Duration : 18 s 51 ms
Bit rate mode : Variable
Width : 720 pixels
Height : 480 pixels
Display aspect ratio : 4:3
Frame rate : 29.970 (29970/1000) FPS
Standard : NTSC
Compression mode : Lossy
Audio
ID : 128 (0x80)
Format : AC-3
Format/Info : Audio Coding 3
Duration : 18 s 66 ms
Channel(s) : 2 channels
Sampling rate : 48.0 kHz
Compression mode : Lossy
Language : English
Menu
Duration : 18 s 66 ms
00:00:00.000 : Chapter 1
00:00:17.000 : Chapter 2
List (Audio) : 0
General
Complete name : /media/erzsebet/GLAZED_AND_CONFUSED/VIDEO_TS/VTS_04_0.VOB
Format : MPEG-PS
File size : 114 KiB
Duration : 467 ms
Overall bit rate : 2 000 kb/s
Video
ID : 224 (0xE0)
Format : MPEG Video
Format version : Version 2
Format profile : [email protected]
Format settings : CustomMatrix / BVOP
Format settings, BVOP : Yes
Format settings, Matrix : Custom
Format settings, picture structure : Frame
Duration : 467 ms
Bit rate mode : Constant
Maximum bit rate : 2 000 kb/s
Width : 720 pixels
Height : 480 pixels
Display aspect ratio : 4:3
Frame rate : 29.970 (30000/1001) FPS
Standard : NTSC
Color space : YUV
Chroma subsampling : 4:2:0
Bit depth : 8 bits
Scan type : Interlaced
Scan order : Top Field First
Compression mode : Lossy
Time code of first frame : 00:00:00:01
Time code source : Group of pictures header
Text
ID : 189 (0xBD)-32 (0x20)
Format : RLE
Format/Info : Run-length encoding
Muxing mode : DVD-Video
Menu
General
Complete name : /media/erzsebet/GLAZED_AND_CONFUSED/VIDEO_TS/VTS_04_1.VOB
Format : MPEG-PS
File size : 1.80 MiB
Duration : 18 s 85 ms
Overall bit rate mode : Constant
Overall bit rate : 836 kb/s
Video
ID : 224 (0xE0)
Format : MPEG Video
Format version : Version 2
Format profile : [email protected]
Format settings : CustomMatrix / BVOP
Format settings, BVOP : Yes
Format settings, Matrix : Custom
Format settings, GOP : Variable
Duration : 18 s 85 ms
Bit rate mode : Constant
Bit rate : 628 kb/s
Width : 720 pixels
Height : 480 pixels
Display aspect ratio : 4:3
Frame rate : 29.970 (30000/1001) FPS
Standard : NTSC
Color space : YUV
Chroma subsampling : 4:2:0
Bit depth : 8 bits
Compression mode : Lossy
Bits/(Pixel*Frame) : 0.061
Stream size : 1.35 MiB (75%)
Color primaries : BT.601 PAL
Transfer characteristics : BT.470 System B/G
Matrix coefficients : BT.470 System B/G
Audio
ID : 189 (0xBD)-128 (0x80)
Format : AC-3
Format/Info : Audio Coding 3
Commercial name : Dolby Digital
Muxing mode : DVD-Video
Duration : 18 s 80 ms
Bit rate mode : Constant
Bit rate : 192 kb/s
Channel(s) : 2 channels
Channel layout : L R
Sampling rate : 48.0 kHz
Frame rate : 31.250 FPS (1536 SPF)
Bit depth : 16 bits
Compression mode : Lossy
Stream size : 424 KiB (23%)
Service kind : Complete Main
Menu
General
Complete name : /media/erzsebet/GLAZED_AND_CONFUSED/VIDEO_TS/VTS_05_0.BUP
Format : DVD Video
Format profile : Program
File size : 28.0 KiB
Duration : 8 min 54 s
Overall bit rate mode : Variable
Overall bit rate : 429 b/s
FileExtension_Invalid : ifo
Video
ID : 224 (0xE0)
Format : MPEG Video
Format version : Version 2
Duration : 8 min 54 s
Bit rate mode : Variable
Width : 720 pixels
Height : 480 pixels
Display aspect ratio : 4:3
Frame rate : 29.970 (29970/1000) FPS
Standard : NTSC
Compression mode : Lossy
Audio
ID : 128 (0x80)
Format : AC-3
Format/Info : Audio Coding 3
Duration : 8 min 54 s
Channel(s) : 2 channels
Sampling rate : 48.0 kHz
Compression mode : Lossy
Language : English
Menu #1
Duration : 8 min 54 s
00:00:00.000 : Chapter 1
00:02:10.500 : Chapter 2
00:03:40.500 : Chapter 3
00:05:45.000 : Chapter 4
00:07:13.000 : Chapter 5
00:08:53.500 : Chapter 6
List (Audio) : 0
Menu #2
Duration : 2 min 11 s
00:00:00.000 : Chapter 1
00:02:10.500 : Chapter 2
List (Audio) : 0
Menu #3
Duration : 1 min 30 s
00:00:00.000 : Chapter 1
00:01:30.000 : Chapter 2
List (Audio) : 0
Menu #4
Duration : 2 min 5 s
00:00:00.000 : Chapter 1
00:02:04.500 : Chapter 2
List (Audio) : 0
Menu #5
Duration : 1 min 28 s
00:00:00.000 : Chapter 1
00:01:28.000 : Chapter 2
List (Audio) : 0
Menu #6
Duration : 1 min 41 s
00:00:00.000 : Chapter 1
00:01:40.500 : Chapter 2
List (Audio) : 0
General
Complete name : /media/erzsebet/GLAZED_AND_CONFUSED/VIDEO_TS/VTS_05_0.IFO
Format : DVD Video
Format profile : Program
File size : 28.0 KiB
Duration : 8 min 54 s
Overall bit rate mode : Variable
Overall bit rate : 429 b/s
Video
ID : 224 (0xE0)
Format : MPEG Video
Format version : Version 2
Duration : 8 min 54 s
Bit rate mode : Variable
Width : 720 pixels
Height : 480 pixels
Display aspect ratio : 4:3
Frame rate : 29.970 (29970/1000) FPS
Standard : NTSC
Compression mode : Lossy
Audio
ID : 128 (0x80)
Format : AC-3
Format/Info : Audio Coding 3
Duration : 8 min 54 s
Channel(s) : 2 channels
Sampling rate : 48.0 kHz
Compression mode : Lossy
Language : English
Menu #1
Duration : 8 min 54 s
00:00:00.000 : Chapter 1
00:02:10.500 : Chapter 2
00:03:40.500 : Chapter 3
00:05:45.000 : Chapter 4
00:07:13.000 : Chapter 5
00:08:53.500 : Chapter 6
List (Audio) : 0
Menu #2
Duration : 2 min 11 s
00:00:00.000 : Chapter 1
00:02:10.500 : Chapter 2
List (Audio) : 0
Menu #3
Duration : 1 min 30 s
00:00:00.000 : Chapter 1
00:01:30.000 : Chapter 2
List (Audio) : 0
Menu #4
Duration : 2 min 5 s
00:00:00.000 : Chapter 1
00:02:04.500 : Chapter 2
List (Audio) : 0
Menu #5
Duration : 1 min 28 s
00:00:00.000 : Chapter 1
00:01:28.000 : Chapter 2
List (Audio) : 0
Menu #6
Duration : 1 min 41 s
00:00:00.000 : Chapter 1
00:01:40.500 : Chapter 2
List (Audio) : 0
General
Complete name : /media/erzsebet/GLAZED_AND_CONFUSED/VIDEO_TS/VTS_05_0.VOB
Format : MPEG-PS
File size : 114 KiB
Duration : 467 ms
Overall bit rate : 2 000 kb/s
Video
ID : 224 (0xE0)
Format : MPEG Video
Format version : Version 2
Format profile : [email protected]
Format settings : CustomMatrix / BVOP
Format settings, BVOP : Yes
Format settings, Matrix : Custom
Format settings, picture structure : Frame
Duration : 467 ms
Bit rate mode : Constant
Maximum bit rate : 2 000 kb/s
Width : 720 pixels
Height : 480 pixels
Display aspect ratio : 4:3
Frame rate : 29.970 (30000/1001) FPS
Standard : NTSC
Color space : YUV
Chroma subsampling : 4:2:0
Bit depth : 8 bits
Scan type : Interlaced
Scan order : Top Field First
Compression mode : Lossy
Time code of first frame : 00:00:00:01
Time code source : Group of pictures header
Text
ID : 189 (0xBD)-32 (0x20)
Format : RLE
Format/Info : Run-length encoding
Muxing mode : DVD-Video
Menu
General
Complete name : /media/erzsebet/GLAZED_AND_CONFUSED/VIDEO_TS/VTS_05_1.VOB
Format : MPEG-PS
File size : 348 MiB
Duration : 8 min 54 s
Overall bit rate mode : Variable
Overall bit rate : 5 460 kb/s
Video
ID : 224 (0xE0)
Format : MPEG Video
Format version : Version 2
Format profile : [email protected]
Format settings : CustomMatrix / BVOP
Format settings, BVOP : Yes
Format settings, Matrix : Custom
Format settings, GOP : M=3, N=15
Format settings, picture structure : Frame
Duration : 8 min 54 s
Bit rate mode : Variable
Bit rate : 5 160 kb/s
Maximum bit rate : 6 000 kb/s
Width : 720 pixels
Height : 480 pixels
Display aspect ratio : 4:3
Frame rate : 29.970 (30000/1001) FPS
Standard : NTSC
Color space : YUV
Chroma subsampling : 4:2:0
Bit depth : 8 bits
Scan type : Interlaced
Scan order : Top Field First
Compression mode : Lossy
Bits/(Pixel*Frame) : 0.498
Time code of first frame : 10:43:09;25
Time code source : Group of pictures header
GOP, Open/Closed : Closed
Stream size : 329 MiB (94%)
Audio
ID : 189 (0xBD)-128 (0x80)
Format : AC-3
Format/Info : Audio Coding 3
Commercial name : Dolby Digital
Muxing mode : DVD-Video
Duration : 8 min 54 s
Bit rate mode : Constant
Bit rate : 192 kb/s
Channel(s) : 2 channels
Channel layout : L R
Sampling rate : 48.0 kHz
Frame rate : 31.250 FPS (1536 SPF)
Bit depth : 16 bits
Compression mode : Lossy
Stream size : 12.2 MiB (4%)
Service kind : Complete Main
Menu
General
Complete name : /media/erzsebet/GLAZED_AND_CONFUSED/VIDEO_TS/VTS_06_0.BUP
Format : DVD Video
Format profile : Program
File size : 30.0 KiB
Duration : 19 min 19 s
Overall bit rate mode : Variable
Overall bit rate : 212 b/s
FileExtension_Invalid : ifo
Video
ID : 224 (0xE0)
Format : MPEG Video
Format version : Version 2
Duration : 19 min 19 s
Bit rate mode : Variable
Width : 720 pixels
Height : 480 pixels
Display aspect ratio : 4:3
Frame rate : 29.970 (29970/1000) FPS
Standard : NTSC
Compression mode : Lossy
Audio
ID : 128 (0x80)
Format : AC-3
Format/Info : Audio Coding 3
Duration : 19 min 19 s
Channel(s) : 2 channels
Sampling rate : 48.0 kHz
Compression mode : Lossy
Language : English
Menu
Duration : 19 min 19 s
00:00:00.000 : Chapter 1
00:19:18.833 : Chapter 2
List (Audio) : 0
General
Complete name : /media/erzsebet/GLAZED_AND_CONFUSED/VIDEO_TS/VTS_06_0.IFO
Format : DVD Video
Format profile : Program
File size : 30.0 KiB
Duration : 19 min 19 s
Overall bit rate mode : Variable
Overall bit rate : 212 b/s
Video
ID : 224 (0xE0)
Format : MPEG Video
Format version : Version 2
Duration : 19 min 19 s
Bit rate mode : Variable
Width : 720 pixels
Height : 480 pixels
Display aspect ratio : 4:3
Frame rate : 29.970 (29970/1000) FPS
Standard : NTSC
Compression mode : Lossy
Audio
ID : 128 (0x80)
Format : AC-3
Format/Info : Audio Coding 3
Duration : 19 min 19 s
Channel(s) : 2 channels
Sampling rate : 48.0 kHz
Compression mode : Lossy
Language : English
Menu
Duration : 19 min 19 s
00:00:00.000 : Chapter 1
00:19:18.833 : Chapter 2
List (Audio) : 0
General
Complete name : /media/erzsebet/GLAZED_AND_CONFUSED/VIDEO_TS/VTS_06_0.VOB
Format : MPEG-PS
File size : 114 KiB
Duration : 467 ms
Overall bit rate : 2 000 kb/s
Video
ID : 224 (0xE0)
Format : MPEG Video
Format version : Version 2
Format profile : [email protected]
Format settings : CustomMatrix / BVOP
Format settings, BVOP : Yes
Format settings, Matrix : Custom
Format settings, picture structure : Frame
Duration : 467 ms
Bit rate mode : Constant
Maximum bit rate : 2 000 kb/s
Width : 720 pixels
Height : 480 pixels
Display aspect ratio : 4:3
Frame rate : 29.970 (30000/1001) FPS
Standard : NTSC
Color space : YUV
Chroma subsampling : 4:2:0
Bit depth : 8 bits
Scan type : Interlaced
Scan order : Top Field First
Compression mode : Lossy
Time code of first frame : 00:00:00:01
Time code source : Group of pictures header
Text
ID : 189 (0xBD)-32 (0x20)
Format : RLE
Format/Info : Run-length encoding
Muxing mode : DVD-Video
Menu
General
Complete name : /media/erzsebet/GLAZED_AND_CONFUSED/VIDEO_TS/VTS_06_1.VOB
Format : MPEG-PS
File size : 764 MiB
Duration : 19 min 20 s
Overall bit rate mode : Variable
Overall bit rate : 5 524 kb/s
Video
ID : 224 (0xE0)
Format : MPEG Video
Format version : Version 2
Format profile : [email protected]
Format settings : CustomMatrix / BVOP
Format settings, BVOP : Yes
Format settings, Matrix : Custom
Format settings, GOP : M=3, N=15
Format settings, picture structure : Frame
Duration : 19 min 20 s
Bit rate mode : Variable
Bit rate : 5 222 kb/s
Maximum bit rate : 6 000 kb/s
Width : 720 pixels
Height : 480 pixels
Display aspect ratio : 4:3
Frame rate : 29.970 (30000/1001) FPS
Standard : NTSC
Color space : YUV
Chroma subsampling : 4:2:0
Bit depth : 8 bits
Scan type : Interlaced
Scan order : Top Field First
Compression mode : Lossy
Bits/(Pixel*Frame) : 0.504
Time code of first frame : 10:00:00;00
Time code source : Group of pictures header
GOP, Open/Closed : Closed
Stream size : 722 MiB (95%)
Audio
ID : 189 (0xBD)-128 (0x80)
Format : AC-3
Format/Info : Audio Coding 3
Commercial name : Dolby Digital
Muxing mode : DVD-Video
Duration : 19 min 20 s
Bit rate mode : Constant
Bit rate : 192 kb/s
Channel(s) : 2 channels
Channel layout : L R
Sampling rate : 48.0 kHz
Frame rate : 31.250 FPS (1536 SPF)
Bit depth : 16 bits
Compression mode : Lossy
Stream size : 26.6 MiB (3%)
Service kind : Complete Main
Menu
General
Complete name : /media/erzsebet/GLAZED_AND_CONFUSED/VIDEO_TS/VTS_07_0.BUP
Format : DVD Video
Format profile : Program
File size : 32.0 KiB
Duration : 21 min 50 s
Overall bit rate mode : Variable
Overall bit rate : 200 b/s
FileExtension_Invalid : ifo
Video
ID : 224 (0xE0)
Format : MPEG Video
Format version : Version 2
Duration : 21 min 50 s
Bit rate mode : Variable
Width : 720 pixels
Height : 480 pixels
Display aspect ratio : 4:3
Frame rate : 29.970 (29970/1000) FPS
Standard : NTSC
Compression mode : Lossy
Audio
ID : 128 (0x80)
Format : AC-3
Format/Info : Audio Coding 3
Duration : 21 min 50 s
Channel(s) : 2 channels
Sampling rate : 48.0 kHz
Compression mode : Lossy
Language : English
Menu
Duration : 21 min 50 s
00:00:00.000 : Chapter 1
00:21:50.200 : Chapter 2
List (Audio) : 0
General
Complete name : /media/erzsebet/GLAZED_AND_CONFUSED/VIDEO_TS/VTS_07_0.IFO
Format : DVD Video
Format profile : Program
File size : 32.0 KiB
Duration : 21 min 50 s
Overall bit rate mode : Variable
Overall bit rate : 200 b/s
Video
ID : 224 (0xE0)
Format : MPEG Video
Format version : Version 2
Duration : 21 min 50 s
Bit rate mode : Variable
Width : 720 pixels
Height : 480 pixels
Display aspect ratio : 4:3
Frame rate : 29.970 (29970/1000) FPS
Standard : NTSC
Compression mode : Lossy
Audio
ID : 128 (0x80)
Format : AC-3
Format/Info : Audio Coding 3
Duration : 21 min 50 s
Channel(s) : 2 channels
Sampling rate : 48.0 kHz
Compression mode : Lossy
Language : English
Menu
Duration : 21 min 50 s
00:00:00.000 : Chapter 1
00:21:50.200 : Chapter 2
List (Audio) : 0
General
Complete name : /media/erzsebet/GLAZED_AND_CONFUSED/VIDEO_TS/VTS_07_0.VOB
Format : MPEG-PS
File size : 114 KiB
Duration : 467 ms
Overall bit rate : 2 000 kb/s
Video
ID : 224 (0xE0)
Format : MPEG Video
Format version : Version 2
Format profile : [email protected]
Format settings : CustomMatrix / BVOP
Format settings, BVOP : Yes
Format settings, Matrix : Custom
Format settings, picture structure : Frame
Duration : 467 ms
Bit rate mode : Constant
Maximum bit rate : 2 000 kb/s
Width : 720 pixels
Height : 480 pixels
Display aspect ratio : 4:3
Frame rate : 29.970 (30000/1001) FPS
Standard : NTSC
Color space : YUV
Chroma subsampling : 4:2:0
Bit depth : 8 bits
Scan type : Interlaced
Scan order : Top Field First
Compression mode : Lossy
Time code of first frame : 00:00:00:01
Time code source : Group of pictures header
Text
ID : 189 (0xBD)-32 (0x20)
Format : RLE
Format/Info : Run-length encoding
Muxing mode : DVD-Video
Menu
General
Complete name : /media/erzsebet/GLAZED_AND_CONFUSED/VIDEO_TS/VTS_07_1.VOB
Format : MPEG-PS
File size : 864 MiB
Duration : 21 min 52 s
Overall bit rate mode : Variable
Overall bit rate : 5 525 kb/s
Video
ID : 224 (0xE0)
Format : MPEG Video
Format version : Version 2
Format profile : [email protected]
Format settings : CustomMatrix / BVOP
Format settings, BVOP : Yes
Format settings, Matrix : Custom
Format settings, GOP : M=3, N=15
Format settings, picture structure : Frame
Duration : 21 min 52 s
Bit rate mode : Variable
Bit rate : 5 223 kb/s
Maximum bit rate : 6 000 kb/s
Width : 720 pixels
Height : 480 pixels
Display aspect ratio : 4:3
Frame rate : 29.970 (30000/1001) FPS
Standard : NTSC
Color space : YUV
Chroma subsampling : 4:2:0
Bit depth : 8 bits
Scan type : Interlaced
Scan order : Top Field First
Compression mode : Lossy
Bits/(Pixel*Frame) : 0.504
Time code of first frame : 10:20:19;00
Time code source : Group of pictures header
GOP, Open/Closed : Closed
Stream size : 817 MiB (95%)
Audio
ID : 189 (0xBD)-128 (0x80)
Format : AC-3
Format/Info : Audio Coding 3
Commercial name : Dolby Digital
Muxing mode : DVD-Video
Duration : 21 min 52 s
Bit rate mode : Constant
Bit rate : 192 kb/s
Channel(s) : 2 channels
Channel layout : L R
Sampling rate : 48.0 kHz
Frame rate : 31.250 FPS (1536 SPF)
Bit depth : 16 bits
Compression mode : Lossy
Stream size : 30.0 MiB (3%)
Service kind : Complete Main
Menu
[erzsebet.org].t2939159.torrent
Торрент: Зарегистрирован [ 2020-07-30 17:17 ]

Скачать .torrent

Скачать

66 KB

Статус: проверено
Скачан: 3 раз
Размер: 6.56 GB
Поблагодарили: 0  Спасибо
terms.php
[Профиль]  [ЛС] 
Показать сообщения:    
Ответить на тему

Текущее время: 07-Авг 04:27

Часовой пояс: UTC + 3



Вы не можете начинать темы
Вы не можете отвечать на сообщения
Вы не можете редактировать свои сообщения
Вы не можете удалять свои сообщения
Вы не можете голосовать в опросах
Вы не можете прикреплять файлы к сообщениям
Вы можете скачивать файлы