[ShesGonnaSquirt.com / Brazzers.com] Zoey Holiday (House Arrest Anal Fest / 6710 / 27.08.12) [2012 г., Anal, Big Tits, Blonde, Creampie, MILF, Sex Toys, Squirt, 720p]

Ответить на тему
Статистика раздачи
Размер:  2.01 GB   |    Зарегистрирован:  5 дней   |    Скачан:  0 раз
Сидов:  1   Личеров:  1  
 
 
Автор Сообщение

erzsebet ®

Стаж: 18 лет

Сообщений: 485795

Откуда: Венгрия

Создавать темы 01-Авг-2020 22:27  |  Сменить автора

[Цитировать] 

House Arrest Anal Fest
Zoey Holiday & Erik Everhard

Имя актрисы: Zoey Holiday
Название ролика: House Arrest Anal Fest
Номер на сайте: 6710
Подсайт и сайт: ShesGonnaSquirt.com / Brazzers.com
Дата производства: 2012-08-27
Жанр: Anal, Big Tits, Blonde, Creampie, MILF, Sex Toys, Squirt
Продолжительность: 00:34:05
Описание: Zoey is locked up on house arrest, and she's never been so horny in her life! Her probation officer finds out she's been sneaking out at night to get fucked so he pays her a visit. She teases him until he decides it's time to teach her ass a lesson it won't forget.
Тип HD видео: 720p
Формат видео: MP4
Видео: MPEG4 Video (H264) 1280x720 29.97fps 7984kbps
Аудио: AAC 48000Hz stereo 128kbps

Скринлист

MediaInfo

General
Complete name : sgs_zoey_holiday_720p_8000.mp4
Format : MPEG-4
Format profile : Base Media
Codec ID : isom (isom/iso2/avc1/mp41)
File size : 2.01 GiB
Duration : 34 min 5 s
Overall bit rate : 8 456 kb/s
Writing application : Lavf54.3.100
Video
ID : 1
Format : AVC
Format/Info : Advanced Video Codec
Format profile : [email protected]
Format settings, CABAC : Yes
Format settings, RefFrames : 5 frames
Codec ID : avc1
Codec ID/Info : Advanced Video Coding
Duration : 34 min 5 s
Bit rate : 8 000 kb/s
Width : 1 280 pixels
Height : 720 pixels
Display aspect ratio : 16:9
Frame rate mode : Constant
Frame rate : 29.970 (30000/1001) FPS
Color space : YUV
Chroma subsampling : 4:2:0
Bit depth : 8 bits
Scan type : Progressive
Bits/(Pixel*Frame) : 0.290
Stream size : 1.90 GiB (94%)
Writing library : x264 core 120 r2164 da19765
Encoding settings : cabac=1 / ref=5 / deblock=1:0:0 / analyse=0x3:0x113 / me=umh / subme=8 / psy=1 / psy_rd=1.00:0.00 / mixed_ref=1 / me_range=16 / chroma_me=1 / trellis=1 / 8x8dct=1 / cqm=0 / deadzone=21,11 / fast_pskip=1 / chroma_qp_offset=-2 / threads=36 / sliced_threads=0 / nr=0 / decimate=1 / interlaced=0 / bluray_compat=0 / constrained_intra=0 / bframes=3 / b_pyramid=2 / b_adapt=2 / b_bias=0 / direct=3 / weightb=1 / open_gop=0 / weightp=2 / keyint=60 / keyint_min=6 / scenecut=40 / intra_refresh=0 / rc_lookahead=50 / rc=abr / mbtree=1 / bitrate=8000 / ratetol=1.0 / qcomp=0.60 / qpmin=0 / qpmax=69 / qpstep=4 / ip_ratio=1.40 / aq=1:1.00
Tagged date : UTC 2012-08-01 19:45:16
Audio
ID : 2
Format : AAC
Format/Info : Advanced Audio Codec
Format profile : LC
Codec ID : 40
Duration : 34 min 5 s
Duration_LastFrame : -2 ms
Bit rate mode : Constant
Bit rate : 128 kb/s
Channel(s) : 2 channels
Channel positions : Front: L R
Sampling rate : 48.0 kHz
Frame rate : 46.875 FPS (1024 SPF)
Compression mode : Lossy
Stream size : 31.2 MiB (2%)
Default : Yes
Alternate group : 1
Tagged date : UTC 2012-08-01 19:45:16
Other #1
ID : 65536
Type : Hint
Format : RTP
Codec ID : rtp
Duration : 34 min 5 s
Encoded date : UTC 2012-08-01 19:44:37
Tagged date : UTC 2012-08-01 19:45:16
Other #2
ID : 65537
Type : Hint
Format : RTP
Codec ID : rtp
Duration : 34 min 5 s
Encoded date : UTC 2012-08-01 19:45:14
Tagged date : UTC 2012-08-01 19:45:16
Bit rate mode : VBR
[erzsebet.org].t2941911.torrent
Торрент: Зарегистрирован [ 2020-08-01 22:27 ]

Скачать .torrent

Скачать

10 KB

Статус: проверено
Скачан: 0 раз
Размер: 2.01 GB
Поблагодарили: 0  Спасибо
terms.php
Связанные раздачи
Добавлен Темы Размер S / L Ссылка
16-Апр-20 12:33 [ShesGonnaSquirt.com / BraZZers.com] Zoey Holiday (House Arrest Anal Fest) [2012 г., All Sex, Anal, Big Tits, Creampie, MILF, Toys, Squirt, 1080p]Отв. 0 3 GB | Скачать .torrent
[Профиль]  [ЛС] 
Показать сообщения:    
Ответить на тему

Текущее время: 07-Авг 04:26

Часовой пояс: UTC + 3



Вы не можете начинать темы
Вы не можете отвечать на сообщения
Вы не можете редактировать свои сообщения
Вы не можете удалять свои сообщения
Вы не можете голосовать в опросах
Вы не можете прикреплять файлы к сообщениям
Вы можете скачивать файлы