Minami Kojima - "This Girl Sure Is Sassy." Minami Got Haughty, So She Gets Fucked Silly At Class Reunion And Cums Hard Minami Kojima [SSNI-816] (S1 NO.1 STYLE) [cen] [2020 г., Embarrassment, Featured Actress, Minimal Mosaic, HDRip] [1080p]

Ответить на тему
Статистика раздачи
Размер:  5.13 GB   |    Зарегистрирован:  4 месяца 2 дня   |    Скачан:  0 раз
Сидов:  1   Личеров:  1  
 
 
Автор Сообщение

erzsebet ®

Стаж: 18 лет

Сообщений: 1067497

Откуда: Венгрия

Создавать темы 03-Авг-2020 22:59  |  Сменить автора

[Цитировать] 

-"This Girl Sure Is Sassy." Minami Got Haughty, So She Gets Fucked Silly At Class Reunion And Cums Hard Minami Kojima
"這個女兒很厚顏無恥。 記錄VTR小島米米,這是伊卡塞,因為你想死在校友會的米多米成為名人

-

-
Cтрана: Япония Жанр: Embarrassment, Featured Actress, Minimal Mosaic Продолжительность: 01:59:01 Цензура: Есть во всех файлах Язык: Японский-Студийный код фильма: SSNI-816 Студия: S1 NO.1 STYLE Европейские девушки в фильме: Нет
-
В ролях: Minami Kojima
-
Тип HD Видео: 1080p Качество видео: HDRip Формат видео: MP4 Видео: AVC, 1920 pixels x 1080 pixels, 29.960 FPS, 6000 kb/s
Аудио
: AAC, 48.0 kHz, 48.0 kHz, 192 kb/s

-

Screenlist and screenshots

MediaInfo

General
Complete name : E:\po\SSNI-816.mp4
Format : MPEG-4
Format profile : Base Media
Codec ID : isom (isom/iso2/avc1/mp41)
File size : 5.13 GiB
Duration : 1 h 59 min
Overall bit rate : 6 174 kb/s
Writing application : Lavf58.10.100
Video
ID : 1
Format : AVC
Format/Info : Advanced Video Codec
Format profile : [email protected]
Format settings : 1 Ref Frames
Format settings, CABAC : No
Format settings, Reference : 1 frame
Codec ID : avc1
Codec ID/Info : Advanced Video Coding
Duration : 1 h 59 min
Duration_LastFrame : 1 ms
Bit rate : 6 000 kb/s
Width : 1 920 pixels
Height : 1 080 pixels
Display aspect ratio : 16:9
Frame rate mode : Constant
Frame rate : 29.970 (30000/1001) FPS
Color space : YUV
Chroma subsampling : 4:2:0
Bit depth : 8 bits
Scan type : Progressive
Bits/(Pixel*Frame) : 0.097
Stream size : 4.97 GiB (97%)
Writing library : x264 core 155 r2901 7d0ff22
Encoding settings : cabac=0 / ref=1 / deblock=1:0:0 / analyse=0x1:0x111 / me=hex / subme=2 / psy=1 / psy_rd=1.00:0.00 / mixed_ref=0 / me_range=16 / chroma_me=1 / trellis=0 / 8x8dct=0 / cqm=0 / deadzone=21,11 / fast_pskip=1 / chroma_qp_offset=0 / threads=18 / lookahead_threads=6 / sliced_threads=0 / nr=0 / decimate=1 / interlaced=0 / bluray_compat=0 / constrained_intra=0 / bframes=0 / weightp=0 / keyint=250 / keyint_min=25 / scenecut=40 / intra_refresh=0 / rc_lookahead=10 / rc=abr / mbtree=1 / bitrate=6000 / ratetol=1.0 / qcomp=0.60 / qpmin=0 / qpmax=69 / qpstep=4 / ip_ratio=1.40 / aq=1:1.00
Codec configuration box : avcC
Audio
ID : 2
Format : AAC LC
Format/Info : Advanced Audio Codec Low Complexity
Codec ID : mp4a-40-2
Duration : 1 h 59 min
Duration_LastFrame : 1 ms
Bit rate mode : Constant
Bit rate : 192 kb/s
Channel(s) : 2 channels
Channel layout : L R
Sampling rate : 48.0 kHz
Frame rate : 46.875 FPS (1024 SPF)
Compression mode : Lossy
Stream size : 163 MiB (3%)
Default : Yes
Alternate group : 1
[erzsebet.org].t2943128.torrent
Торрент: Зарегистрирован [ 2020-08-03 22:59 ]

Скачать .torrent

Скачать

26 KB

Статус: проверено
Скачан: 0 раз
Размер: 5.13 GB
Поблагодарили: 0  Спасибо
terms.php
[Профиль]  [ЛС] 
Показать сообщения:    
Ответить на тему

Текущее время: 06-Дек 01:41

Часовой пояс: UTC + 3



Вы не можете начинать темы
Вы не можете отвечать на сообщения
Вы не можете редактировать свои сообщения
Вы не можете удалять свои сообщения
Вы не можете голосовать в опросах
Вы не можете прикреплять файлы к сообщениям
Вы можете скачивать файлы