Проповедник / Preacher / Сезон: 2 / Серии: 1-13 из 13 (Эван Голдберг, Сет Роген, Майкл Словис) [2017, США, Фантастика, драма, мистика, экранизация комикса, WEB-DL 1080p] MVO (LostFilm)+ Original

Ответить на тему
Статистика раздачи
Размер:  24,31 GB   |    Зарегистрирован:  6 месяцев 30 дней   |    Скачан:  0 раз

Полного источника не было: Никогда

 
 
 
Автор Сообщение

erzsebet ®

Стаж: 17 лет

Сообщений: 73897

Создавать темы 19-Янв-2019 17:53  |  Сменить автора

[Цитировать] 

Проповедник / Preacher
Год выпуска: 2017
Страна: США
Жанр: Фантастика, драма, мистика, экранизация комикса
Продолжительность: ~45:00
Перевод: Профессиональный (многоголосый закадровый) LostFilm
Режиссёр: Эван Голдберг, Сет Роген, Майкл Словис
В ролях: Доминик Купер, Том Брук, У. Эрл Браун, Йен Коллетти, Джозеф Гилган, Люси Гриффитс, Джеки Эрл Хейли, Рут Негга, Дерек Уилсон, Анатол Юсеф и другие
Описание: Священник Джесси Кастер по воле случая стал носителем внутри своего естества странного существа по имени Генезис. Это дитя совокупления ангела и демона представляет собой одновременно чистый идеал и квинтэссенцию света, но также сгусток абсолютного зла. Генезис — единственное существо во Вселенной, которое может встать вровень с Богом, если того пожелает, а его носитель автоматически становится самым могущественным существом в материальном мире. И это проповедник Кастер.
Сэмпл
Качество: WEB-DL 1080p
Контейнер: MKV
Видео: MPEG-4 AVC, 1916х1076p (16:9), 23.976 fps, ~5100 kbps
Аудио: Русский, AC-3, 48 kHz, 2 ch, 384 kbps
Аудио 2: Английский, AC-3, 48 kHz, 6 ch, 384 kbps
Субтитры: Нет
Реклама: Отсутствует

MediaInfo

General
Unique ID : 202671798889361126165769528621231766928 (0x98792B2BC10DC534846A4405D837FD90)
Complete name : G:\Preacher.S02.WEB-DL1080p.LostFilm\Preacher.S02E01.WEB-DL1080p.Rus.Eng.LostFilm.mkv
Format : Matroska
Format version : Version 2
File size : 1.86 GiB
Duration : 44 min 29 s
Overall bit rate : 5 986 kb/s
Movie name : 1 Серия
Encoded date : UTC 2017-09-13 12:13:14
Writing application : mkvmerge v5.8.0 ('No Sleep / Pillow') built on Sep 2 2012 15:37:04
Writing library : libebml v1.2.3 + libmatroska v1.3.0
Cover : Yes
Attachments : cover.png
Video
ID : 1
Format : AVC
Format/Info : Advanced Video Codec
Format profile : High@L4
Format settings, CABAC : Yes
Format settings, RefFrames : 4 frames
Codec ID : V_MPEG4/ISO/AVC
Duration : 44 min 29 s
Bit rate : 5 099 kb/s
Width : 1 916 pixels
Height : 1 076 pixels
Display aspect ratio : 16:9
Frame rate mode : Constant
Frame rate : 23.976 (24000/1001) FPS
Color space : YUV
Chroma subsampling : 4:2:0
Bit depth : 8 bits
Scan type : Progressive
Bits/(Pixel*Frame) : 0.103
Stream size : 1.58 GiB (85%)
Language : English
Default : Yes
Forced : No
Color range : Limited
Color primaries : BT.709
Transfer characteristics : BT.709
Matrix coefficients : BT.709
Audio #1
ID : 2
Format : AC-3
Format/Info : Audio Coding 3
Format settings, Endianness : Big
Codec ID : A_AC3
Duration : 44 min 29 s
Bit rate mode : Constant
Bit rate : 384 kb/s
Channel(s) : 2 channels
Channel positions : Front: L R
Sampling rate : 48.0 kHz
Frame rate : 31.250 FPS (1536 SPF)
Bit depth : 16 bits
Compression mode : Lossy
Delay relative to video : -42 ms
Stream size : 122 MiB (6%)
Title : LostFilm
Language : Russian
Service kind : Complete Main
Default : Yes
Forced : Yes
Audio #2
ID : 3
Format : AC-3
Format/Info : Audio Coding 3
Format settings, Endianness : Big
Codec ID : A_AC3
Duration : 44 min 29 s
Bit rate mode : Constant
Bit rate : 384 kb/s
Channel(s) : 6 channels
Channel positions : Front: L C R, Side: L R, LFE
Sampling rate : 48.0 kHz
Frame rate : 31.250 FPS (1536 SPF)
Bit depth : 16 bits
Compression mode : Lossy
Delay relative to video : -42 ms
Stream size : 122 MiB (6%)
Title : eng
Language : English
Service kind : Complete Main
Default : No
Forced : No

Скриншоты

Если ваш рейтинг упадет ниже 0,3, вы не сможете скачивать торренты! Подробнее о рейтинге.

[erzsebet.org].t29977.torrent 
Торрент: Зарегистрирован [ 2019-01-19 17:53 ]

Скачать .torrent

Скачать

123 KB

Статус: проверено
Скачан: 0 раз
Размер: 24,31 GB
Поблагодарили: 0  Спасибо
terms.php
[Профиль]  [ЛС] 
Показать сообщения:    
Ответить на тему

Текущее время: 19-Авг 11:58

Часовой пояс: UTC + 3



Вы не можете начинать темы
Вы не можете отвечать на сообщения
Вы не можете редактировать свои сообщения
Вы не можете удалять свои сообщения
Вы не можете голосовать в опросах
Вы не можете прикреплять файлы к сообщениям
Вы можете скачивать файлы