Побег из тюрьмы: Коллекция / Prison Break: Collection (Пол Шеринг) [2005 - 2009, США, драма, боевик, BDRip 1080p](REN-TV + С.Р.И. + NovaFilm)

Ответить на тему
Статистика раздачи
Размер:  398,84 GB   |    Зарегистрирован:  6 месяцев 30 дней   |    Скачан:  0 раз

Полного источника не было: Никогда

 
 
 
Автор Сообщение

erzsebet ®

Стаж: 17 лет

Сообщений: 73897

Создавать темы 19-Янв-2019 18:21  |  Сменить автора

[Цитировать] 

-

Побег из тюрьмы - Сезон 1

-Побег из тюрьмы - Первый сезон
Prison Break - First Season
Год выпуска: 2005
Страна: США | USA
Жанр: боевик, драма
Продолжительность: ~45 мин.
Перевод: Профессиональный закадровый
Субтитры: Russian, English
Режиссёр: Пол Шеринг
-В ролях:
Вентворт Миллер, Доминик Пёрселл, Сара Уэйн Кэллиc, Амори Ноласко, Роберт Неппер, Рокмонд Дамбер, Уэйд Уильямс, Маршалл Олмэн, Пол Адельштейн, Питер Стормаре, Робин Танни
Описание:
Это история о двух братьях. Старший — Линкольн Барроуз, парень неблагополучный, бывший наркоман — находится под стражей в тюрьме строгого режима «Фокс Ривер» в ожидании смертной казни за убийство брата вице-президента, которого он не совершал. Младший брат Майкл Скофилд решает спасти своего брата и устроить побег из тюрьмы. Для реализации плана Майкл устраивает фальшивое ограбление банка, отказывается от адвоката и сам садится в ту же тюрьму, где ждет казни его брат.
-Качество: BDRip
Формат: MKV
Видео кодек: H.264
Аудио кодек: AC3, DTS
Видео: AVC at 12 800 Kbps 1920 x 1080 (1.778) at 23.976 fps 0.258 bit/pixel
Аудио Rus: 48 kHz, AC3 Dolby Digital, 3/2 (L,C,R,l,r) + LFE ch, ~384 kbps(Дублированный "REN-TV")
Аудио Rus: 48 kHz, AC3 Dolby Digital, 3/2 (L,C,R,l,r) + LFE ch, ~384 kbps(Многоголосый "С.Р.И.")
Аудио Rus: 48 kHz, AC3 Dolby Digital, 3/2 (L,C,R,l,r) + LFE ch, ~384 kbps(Одноголосый "NovaFilm")
Аудио Eng: 48 kHz, DTS, 3/2 (L,C,R,l,r) + LFE ch, ~1510.00 kbps avg(Original)
Субтитры: Russian, English
- -

MI

General
Complete name : D:\Prison Break BluRay 1080p Collection\Prison Break Season 1 BDRip 1080p\Prison Break.s01e01.rus.eng.bdrip.1080p.mkv
Format : Matroska
File size : 4.73 GiB
Duration : 43mn 41s
Overall bit rate : 15.5 Mbps
Encoded date : UTC 2011-06-24 19:59:31
Writing application : mkvmerge v3.3.0 ('Language') built on Mar 24 2010 14:59:24
Writing library : libebml v0.8.0 + libmatroska v0.9.0
Video
ID : 1
Format : AVC
Format/Info : Advanced Video Codec
Format profile : High@L4.1
Format settings, CABAC : Yes
Format settings, ReFrames : 4 frames
Muxing mode : Container profile=Unknown@4.1
Codec ID : V_MPEG4/ISO/AVC
Duration : 43mn 41s
Bit rate : 12.8 Mbps
Width : 1 920 pixels
Height : 1 080 pixels
Display aspect ratio : 16:9
Frame rate : 23.976 fps
Color space : YUV
Chroma subsampling : 4:2:0
Bit depth : 8 bits
Scan type : Progressive
Bits/(Pixel*Frame) : 0.258
Stream size : 3.82 GiB (81%)
Writing library : x264 core 60 r883M cfaac5c
Encoding settings : cabac=1 / ref=4 / deblock=1:-3:-3 / analyse=0x3:0x113 / me=umh / subme=7 / brdo=1 / mixed_ref=1 / me_range=16 / chroma_me=1 / trellis=0 / 8x8dct=1 / cqm=2 / deadzone=6,4 / chroma_qp_offset=0 / threads=3 / nr=0 / decimate=1 / mbaff=0 / fgo=10 / bframes=16 / b_pyramid=1 / b_adapt=1 / b_bias=0 / direct=3 / wpredb=1 / bime=1 / keyint=250 / keyint_min=25 / scenecut=40(pre) / rc=2pass / bitrate=12822 / ratetol=1.0 / rceq='blurCplx^(1-qComp)' / qcomp=1.00 / qpmin=10 / qpmax=51 / qpstep=4 / cplxblur=20.0 / qblur=0.5 / ip_ratio=1.40 / pb_ratio=1.15 / aq=2:1.00
Language : English
Audio #1
ID : 2
Format : AC-3
Format/Info : Audio Coding 3
Mode extension : CM (complete main)
Codec ID : A_AC3
Duration : 43mn 41s
Bit rate mode : Constant
Bit rate : 384 Kbps
Channel(s) : 6 channels
Channel positions : Front: L C R, Side: L R, LFE
Sampling rate : 48.0 KHz
Bit depth : 16 bits
Stream size : 120 MiB (2%)
Title : AC3 5.1 @ 384 kbps [Ren-Tv]
Language : Russian
Audio #2
ID : 3
Format : AC-3
Format/Info : Audio Coding 3
Mode extension : CM (complete main)
Codec ID : A_AC3
Duration : 43mn 41s
Bit rate mode : Constant
Bit rate : 384 Kbps
Channel(s) : 6 channels
Channel positions : Front: L C R, Side: L R, LFE
Sampling rate : 48.0 KHz
Bit depth : 16 bits
Stream size : 120 MiB (2%)
Title : AC3 5.1 @ 384 kbps [SRI]
Language : Russian
Audio #3
ID : 4
Format : AC-3
Format/Info : Audio Coding 3
Mode extension : CM (complete main)
Codec ID : A_AC3
Duration : 43mn 41s
Bit rate mode : Constant
Bit rate : 384 Kbps
Channel(s) : 6 channels
Channel positions : Front: L C R, Side: L R, LFE
Sampling rate : 48.0 KHz
Bit depth : 16 bits
Stream size : 120 MiB (2%)
Title : AC3 5.1 @ 384 kbps [NovaFilm]
Language : Russian
Audio #4
ID : 5
Format : DTS
Format/Info : Digital Theater Systems
Codec ID : A_DTS
Duration : 43mn 41s
Bit rate mode : Constant
Bit rate : 1 510 Kbps
Channel(s) : 6 channels
Channel positions : Front: L C R, Side: L R, LFE
Sampling rate : 48.0 KHz
Bit depth : 24 bits
Stream size : 472 MiB (10%)
Title : DTS 5.1 @ 1510 kbps
Language : English
Text #1
ID : 6
Format : UTF-8
Codec ID : S_TEXT/UTF8
Codec ID/Info : UTF-8 Plain Text
Language : Russian
Text #2
ID : 7
Format : UTF-8
Codec ID : S_TEXT/UTF8
Codec ID/Info : UTF-8 Plain Text
Language : Russian
Text #3
ID : 8
Format : UTF-8
Codec ID : S_TEXT/UTF8
Codec ID/Info : UTF-8 Plain Text
Language : English

Список серий

-

Побег из тюрьмы - Сезон 2

-Побег из тюрьмы - Второй сезон
Prison Break - Second Season
Год выпуска: 2006
Страна: США | USA
Жанр: боевик, драма
Продолжительность: ~45 мин.
Перевод: Профессиональный закадровый
Субтитры: Russian, English
Режиссёр: Пол Шеринг
-В ролях:
Вентворт Миллер, Доминик Пёрселл, Сара Уэйн Кэллиc, Амори Ноласко, Роберт Неппер, Рокмонд Дамбер, Уэйд Уильямс, Маршалл Олмэн, Пол Адельштейн, Питер Стормаре, Робин Танни
Описание:
После побега из тюрьмы "Фокс Ривер" группу отъявленных рецидивистов, возглавляемую Линкольном и Майклом разыскивают по всем США. Беглецы пытаются скрыться, проникнув на международный рейс, отыскать миллион долларов и рискуют всем, чтобы разоблачить коварный заговор правительства. Для этой восьмерки сложнее всего - это дожить до того дня, когда им уже не нужно будет убегать и прятаться.
-Качество: BDRip
Формат: MKV
Видео кодек: H.264
Аудио кодек: AC3, DTS
Видео: AVC at 13 400 Kbps 1920 x 1080 (1.778) at 23.976 fps 0.270 bit/pixel
Аудио Rus: 48 kHz, AC3 Dolby Digital, 3/2 (L,C,R,l,r) + LFE ch, ~384 kbps(Дублированный "REN-TV")
Аудио Rus: 48 kHz, AC3 Dolby Digital, 3/2 (L,C,R,l,r) + LFE ch, ~384 kbps(Многоголосый "С.Р.И.")
Аудио Rus: 48 kHz, AC3 Dolby Digital, 3/2 (L,C,R,l,r) + LFE ch, ~384 kbps(Одноголосый "NovaFilm")
Аудио Eng: 48 kHz, DTS, 3/2 (L,C,R,l,r) + LFE ch, ~1510.00 kbps avg(Original)
Субтитры: Russian, English
- -

MI

General
Complete name : D:\Prison Break BluRay 1080p Collection\Prison Break Season 2 BDRip 1080p\Prison Break.s02e01.rus.eng.bdrip.1080p.mkv
Format : Matroska
File size : 4.66 GiB
Duration : 41mn 27s
Overall bit rate : 16.1 Mbps
Encoded date : UTC 2011-06-27 22:35:19
Writing application : mkvmerge v3.3.0 ('Language') built on Mar 24 2010 14:59:24
Writing library : libebml v0.8.0 + libmatroska v0.9.0
Video
ID : 1
Format : AVC
Format/Info : Advanced Video Codec
Format profile : High@L4.1
Format settings, CABAC : Yes
Format settings, ReFrames : 4 frames
Muxing mode : Container profile=Unknown@4.1
Codec ID : V_MPEG4/ISO/AVC
Duration : 41mn 27s
Bit rate : 13.4 Mbps
Width : 1 920 pixels
Height : 1 080 pixels
Display aspect ratio : 16:9
Frame rate : 23.976 fps
Color space : YUV
Chroma subsampling : 4:2:0
Bit depth : 8 bits
Scan type : Progressive
Bits/(Pixel*Frame) : 0.270
Stream size : 3.80 GiB (81%)
Writing library : x264 core 79 r1342kMod e8501ef
Encoding settings : cabac=1 / ref=4 / deblock=1:-1:-1 / analyse=0x3:0x111 / me=umh / subme=9 / psy=1 / psy_rd=1.0:0.5 / mixed_ref=1 / me_range=64 / chroma_me=1 / trellis=2 / 8x8dct=1 / cqm=0 / deadzone=21,11 / chroma_qp_offset=-4 / threads=12 / nr=0 / decimate=1 / mbaff=0 / constrained_intra=0 / bframes=3 / b_pyramid=0 / b_adapt=2 / b_bias=0 / direct=3 / wpredb=1 / wpredp=2 / keyint=250 / keyint_min=25 / scenecut=40 / rc_lookahead=60 / rc=2pass / mbtree=1 / bitrate=13427 / ratetol=1.0 / qcomp=0.60 / qpmin=10 / qpmax=51 / qpstep=4 / cplxblur=20.0 / qblur=0.5 / ip_ratio=1.40 / aq=1:1.00
Audio #1
ID : 2
Format : AC-3
Format/Info : Audio Coding 3
Mode extension : CM (complete main)
Codec ID : A_AC3
Duration : 41mn 27s
Bit rate mode : Constant
Bit rate : 384 Kbps
Channel(s) : 6 channels
Channel positions : Front: L C R, Side: L R, LFE
Sampling rate : 48.0 KHz
Bit depth : 16 bits
Stream size : 114 MiB (2%)
Title : AC3 5.1 @ 384 kbps [Ren-Tv]
Language : Russian
Audio #2
ID : 3
Format : AC-3
Format/Info : Audio Coding 3
Mode extension : CM (complete main)
Codec ID : A_AC3
Duration : 41mn 27s
Bit rate mode : Constant
Bit rate : 384 Kbps
Channel(s) : 6 channels
Channel positions : Front: L C R, Side: L R, LFE
Sampling rate : 48.0 KHz
Bit depth : 16 bits
Stream size : 114 MiB (2%)
Title : AC3 5.1 @ 384 kbps [SRI]
Language : Russian
Audio #3
ID : 4
Format : AC-3
Format/Info : Audio Coding 3
Mode extension : CM (complete main)
Codec ID : A_AC3
Duration : 41mn 27s
Bit rate mode : Constant
Bit rate : 384 Kbps
Channel(s) : 6 channels
Channel positions : Front: L C R, Side: L R, LFE
Sampling rate : 48.0 KHz
Bit depth : 16 bits
Stream size : 114 MiB (2%)
Title : AC3 5.1 @ 384 kbps [NovaFilm]
Language : Russian
Audio #4
ID : 5
Format : DTS
Format/Info : Digital Theater Systems
Codec ID : A_DTS
Duration : 41mn 27s
Bit rate mode : Constant
Bit rate : 1 510 Kbps
Channel(s) : 6 channels
Channel positions : Front: L C R, Side: L R, LFE
Sampling rate : 48.0 KHz
Bit depth : 24 bits
Stream size : 448 MiB (9%)
Title : DTS 5.1 @ 1510 kbps
Language : English
Text #1
ID : 6
Format : UTF-8
Codec ID : S_TEXT/UTF8
Codec ID/Info : UTF-8 Plain Text
Language : Russian
Text #2
ID : 7
Format : UTF-8
Codec ID : S_TEXT/UTF8
Codec ID/Info : UTF-8 Plain Text
Language : English

Список серий

-

Побег из тюрьмы - Сезон 3

-Побег из тюрьмы - Третий сезон
Prison Break - Third Season
Год выпуска: 2007
Страна: США | USA
Жанр: боевик, драма
Продолжительность: ~45 мин.
Перевод: Профессиональный закадровый
Субтитры: Russian, Russian (forced), English
Режиссёр: Пол Шеринг
-В ролях:
Вентворт Миллер, Доминик Пёрселл, Сара Уэйн Кэллиc, Амори Ноласко, Роберт Неппер, Рокмонд Дамбер, Уэйд Уильямс, Маршалл Олмэн, Пол Адельштейн, Питер Стормаре, Робин Танни
Описание:
Сюжет продолжает финал второго сезона в Панаме. Хотя Линкольна оправдали, Майкл был заключён в федеральную тюрьму «Сона» лицом к лицу с убийцами. Махоун, Бэгвелла и Беллика также заключили в Сону за различные преступления. «Компания» взяла в заложники Сару и Линкольна-младшего и отпустит их, если Линкольн и Майкл помогут бежать заключённому.
-Качество: BDRip
Формат: MKV
Видео кодек: H.264
Аудио кодек: AC3, DTS
Видео: AVC at 19 000 Kbps 1920 x 1080 (1.778) at 23.976 fps 0.382 bit/pixel
Аудио Rus: 48 kHz, AC3 Dolby Digital, 3/2 (L,C,R,l,r) + LFE ch, ~384 kbps(Дублированный "REN-TV")
Аудио Rus: 48 kHz, AC3 Dolby Digital, 3/2 (L,C,R,l,r) + LFE ch, ~384 kbps(Многоголосый "С.Р.И.")
Аудио Rus: 48 kHz, AC3 Dolby Digital, 3/2 (L,C,R,l,r) + LFE ch, ~384 kbps(Многолосый "NovaFilm")
Аудио Eng: 48 kHz, DTS, 3/2 (L,C,R,l,r) + LFE ch, ~1510.00 kbps avg(Original)
Субтитры: Russian, Russian (forced), English
- -

MI

General
Complete name : D:\Prison Break BluRay 1080p Collection\Prison Break Season 3 BDRip 1080p\Prison Break.s03e01.rus.eng.bdrip.1080p.mkv
Format : Matroska
File size : 6.52 GiB
Duration : 43mn 5s
Overall bit rate : 21.7 Mbps
Movie name : Prison Break S03E01
Encoded date : UTC 2011-06-30 13:21:07
Writing application : mkvmerge v3.3.0 ('Language') built on Mar 24 2010 14:59:24
Writing library : libebml v0.8.0 + libmatroska v0.9.0
Video
ID : 1
Format : AVC
Format/Info : Advanced Video Codec
Format profile : High@L4.1
Format settings, CABAC : Yes
Format settings, ReFrames : 4 frames
Muxing mode : Container profile=Unknown@4.1
Codec ID : V_MPEG4/ISO/AVC
Duration : 43mn 5s
Bit rate : 19.0 Mbps
Width : 1 920 pixels
Height : 1 080 pixels
Display aspect ratio : 16:9
Frame rate : 23.976 fps
Color space : YUV
Chroma subsampling : 4:2:0
Bit depth : 8 bits
Scan type : Progressive
Bits/(Pixel*Frame) : 0.382
Stream size : 5.59 GiB (86%)
Title : 2 pass encode - BTT
Writing library : x264 core 65 r1066M 045ae40
Encoding settings : cabac=1 / ref=4 / deblock=1:-3:-3 / analyse=0x3:0x113 / me=umh / subme=9 / psy_rd=1.0:0.0 / mixed_ref=1 / me_range=24 / chroma_me=1 / trellis=0 / 8x8dct=1 / cqm=2 / deadzone=4,2 / chroma_qp_offset=-2 / threads=8 / nr=0 / decimate=1 / mbaff=0 / bframes=5 / b_pyramid=0 / b_adapt=2 / b_bias=0 / direct=3 / wpredb=1 / keyint=250 / keyint_min=25 / scenecut=40(pre) / rc=2pass / bitrate=19000 / ratetol=2.0 / qcomp=0.60 / qpmin=10 / qpmax=51 / qpstep=4 / cplxblur=20.0 / qblur=0.5 / vbv_maxrate=38000 / vbv_bufsize=30000 / ip_ratio=1.40 / pb_ratio=1.30 / aq=1:0.80
Language : English
Audio #1
ID : 2
Format : AC-3
Format/Info : Audio Coding 3
Mode extension : CM (complete main)
Codec ID : A_AC3
Duration : 43mn 5s
Bit rate mode : Constant
Bit rate : 384 Kbps
Channel(s) : 6 channels
Channel positions : Front: L C R, Side: L R, LFE
Sampling rate : 48.0 KHz
Bit depth : 16 bits
Stream size : 118 MiB (2%)
Title : AC3 5.1 @ 384 kbps [Ren-Tv]
Language : Russian
Audio #2
ID : 3
Format : AC-3
Format/Info : Audio Coding 3
Mode extension : CM (complete main)
Codec ID : A_AC3
Duration : 43mn 5s
Bit rate mode : Constant
Bit rate : 384 Kbps
Channel(s) : 2 channels
Channel positions : Front: L R
Sampling rate : 48.0 KHz
Bit depth : 16 bits
Stream size : 118 MiB (2%)
Title : AC3 5.1 @ 384 kbps [SRI]
Language : Russian
Audio #3
ID : 4
Format : AC-3
Format/Info : Audio Coding 3
Mode extension : CM (complete main)
Codec ID : A_AC3
Duration : 43mn 5s
Bit rate mode : Constant
Bit rate : 384 Kbps
Channel(s) : 6 channels
Channel positions : Front: L C R, Side: L R, LFE
Sampling rate : 48.0 KHz
Bit depth : 16 bits
Stream size : 118 MiB (2%)
Title : AC3 5.1 @ 384 kbps [NovaFilm]
Language : Russian
Audio #4
ID : 5
Format : DTS
Format/Info : Digital Theater Systems
Codec ID : A_DTS
Duration : 43mn 5s
Bit rate mode : Constant
Bit rate : 1 510 Kbps
Channel(s) : 6 channels
Channel positions : Front: L C R, Side: L R, LFE
Sampling rate : 48.0 KHz
Bit depth : 24 bits
Stream size : 465 MiB (7%)
Title : DTS 5.1 @ 1510 kbps
Language : English
Text #1
ID : 6
Format : UTF-8
Codec ID : S_TEXT/UTF8
Codec ID/Info : UTF-8 Plain Text
Language : Russian
Text #2
ID : 7
Format : UTF-8
Codec ID : S_TEXT/UTF8
Codec ID/Info : UTF-8 Plain Text
Title : FORCED
Language : Russian
Text #3
ID : 8
Format : UTF-8
Codec ID : S_TEXT/UTF8
Codec ID/Info : UTF-8 Plain Text
Language : English

Список серий

-

Побег из тюрьмы - Сезон 4

-Побег из тюрьмы - Четвертый сезон
Prison Break - Fourth Season
Год выпуска: 2009
Страна: США | USA
Жанр: боевик, драма
Продолжительность: ~45 мин.
Перевод: Профессиональный закадровый
Субтитры: Russian, English
Режиссёр: Пол Шеринг
-В ролях:
Вентворт Миллер, Доминик Пёрселл, Сара Уэйн Кэллиc, Амори Ноласко, Роберт Неппер, Рокмонд Дамбер, Уэйд Уильямс, Маршалл Олмэн, Пол Адельштейн, Питер Стормаре, Робин Танни
Описание:
Майкл и Линкольн снова готовы сплотить свои усилия в борьбе против Компании.
Братья объединяются с правительственным агентом, чтобы собрать сторонников своей борьбы. В список сторонников войдут известные нам персонажи – Махоуни, Беллик, и, конечно же, Сукре. И несмотря на всё нежелание братьев, им придется вновь принять в свои ряды Ти-Бэга, который сам о том не подозревая, стал обладателем жизненно важной для борьбы с Компанией улики.
-Качество: BDRip
Формат: MKV
Видео кодек: H.264
Аудио кодек: AC3, DTS
Видео: AVC at 12 000 Kbps 1920 x 1080 (1.778) at 23.976 fps 0.241 bit/pixel
Аудио Rus: 48 kHz, AC3 Dolby Digital, 2/0 (L,R) ch, ~192 kbps(Дублированный "REN-TV")
Аудио Rus: 48 kHz, AC3 Dolby Digital, 3/2 (L,C,R,l,r) + LFE ch, ~384 kbps(Многоголосый "С.Р.И.")
Аудио Rus: 48 kHz, AC3 Dolby Digital, 3/2 (L,C,R,l,r) + LFE ch, ~384 kbps(Многолосый "NovaFilm")
Аудио Eng: 48 kHz, DTS, 3/2 (L,C,R,l,r) + LFE ch, ~1510.00 kbps avg(Original)
Субтитры: Russian, English
- -

MI

General
Complete name : D:\Prison Break BluRay 1080p Collection\Prison Break Season 4 BDRip 1080p\Prison Break.s04e01-02.rus.eng.bdrip.1080p.mkv
Format : Matroska
File size : 8.74 GiB
Duration : 1h 26mn
Overall bit rate : 14.5 Mbps
Movie name : Prison Break S03E01
Encoded date : UTC 2011-07-03 16:22:03
Writing application : mkvmerge v3.3.0 ('Language') built on Mar 24 2010 14:59:24
Writing library : libebml v0.8.0 + libmatroska v0.9.0
Video
ID : 1
Format : AVC
Format/Info : Advanced Video Codec
Format profile : High@L4.1
Format settings, CABAC : Yes
Format settings, ReFrames : 4 frames
Muxing mode : Container profile=Unknown@4.1
Codec ID : V_MPEG4/ISO/AVC
Duration : 1h 26mn
Bit rate : 12.0 Mbps
Width : 1 920 pixels
Height : 1 080 pixels
Display aspect ratio : 16:9
Frame rate : 23.976 fps
Color space : YUV
Chroma subsampling : 4:2:0
Bit depth : 8 bits
Scan type : Progressive
Bits/(Pixel*Frame) : 0.241
Stream size : 7.07 GiB (81%)
Writing library : x264 core 80 r1373 4322f63
Encoding settings : cabac=1 / ref=4 / deblock=1:-2:-2 / analyse=0x3:0x113 / me=umh / subme=9 / psy=1 / psy_rd=1.3:0.0 / mixed_ref=1 / me_range=24 / chroma_me=1 / trellis=2 / 8x8dct=1 / cqm=0 / deadzone=21,11 / fast_pskip=0 / chroma_qp_offset=-2 / threads=6 / sliced_threads=0 / nr=0 / decimate=0 / mbaff=0 / constrained_intra=0 / bframes=4 / b_pyramid=0 / b_adapt=2 / b_bias=5 / direct=3 / wpredb=1 / wpredp=2 / keyint=250 / keyint_min=25 / scenecut=40 / rc_lookahead=40 / rc=2pass / mbtree=1 / bitrate=12000 / ratetol=1.0 / qcomp=0.60 / qpmin=10 / qpmax=51 / qpstep=4 / cplxblur=20.0 / qblur=0.5 / vbv_maxrate=40000 / vbv_bufsize=30000 / ip_ratio=1.40 / aq=1:1.50
Language : English
Audio #1
ID : 2
Format : AC-3
Format/Info : Audio Coding 3
Mode extension : CM (complete main)
Codec ID : A_AC3
Duration : 1h 26mn
Bit rate mode : Constant
Bit rate : 192 Kbps
Channel(s) : 2 channels
Channel positions : Front: L R
Sampling rate : 48.0 KHz
Bit depth : 16 bits
Stream size : 119 MiB (1%)
Title : AC3 2.0 @ 192 kbps [Ren-Tv]
Language : Russian
Audio #2
ID : 3
Format : AC-3
Format/Info : Audio Coding 3
Mode extension : CM (complete main)
Codec ID : A_AC3
Duration : 1h 26mn
Bit rate mode : Constant
Bit rate : 384 Kbps
Channel(s) : 6 channels
Channel positions : Front: L C R, Side: L R, LFE
Sampling rate : 48.0 KHz
Bit depth : 16 bits
Stream size : 237 MiB (3%)
Title : AC3 5.1 @ 384 kbps [SRI]
Language : Russian
Audio #3
ID : 4
Format : AC-3
Format/Info : Audio Coding 3
Mode extension : CM (complete main)
Codec ID : A_AC3
Duration : 1h 26mn
Bit rate mode : Constant
Bit rate : 384 Kbps
Channel(s) : 6 channels
Channel positions : Front: L C R, Side: L R, LFE
Sampling rate : 48.0 KHz
Bit depth : 16 bits
Stream size : 237 MiB (3%)
Title : AC3 5.1 @ 384 kbps [NovaFilm]
Language : Russian
Audio #4
ID : 5
Format : DTS
Format/Info : Digital Theater Systems
Codec ID : A_DTS
Duration : 1h 26mn
Bit rate mode : Constant
Bit rate : 1 510 Kbps
Channel(s) : 6 channels
Channel positions : Front: L C R, Side: L R, LFE
Sampling rate : 48.0 KHz
Bit depth : 16 bits
Stream size : 933 MiB (10%)
Title : DTS 5.1 @ 1510 kbps
Language : English
Text #1
ID : 6
Format : UTF-8
Codec ID : S_TEXT/UTF8
Codec ID/Info : UTF-8 Plain Text
Language : Russian
Text #2
ID : 7
Format : UTF-8
Codec ID : S_TEXT/UTF8
Codec ID/Info : UTF-8 Plain Text
Language : English

Список серий

-

Побег из тюрьмы - Финал

-Побег из тюрьмы - Финальный побег
Prison Break - Final Break
Год выпуска: 2009
Страна: США | USA
Жанр: боевик, драма
Продолжительность: ~45 мин.
Перевод: Профессиональный закадровый
Субтитры: Russian (forced), English
Режиссёр: Пол Шеринг
-В ролях:
Вентворт Миллер, Доминик Пёрселл, Сара Уэйн Кэллиc, Амори Ноласко, Роберт Неппер, Рокмонд Дамбер, Уэйд Уильямс, Маршалл Олмэн, Пол Адельштейн, Питер Стормаре, Робин Танни
Описание:
The Final Break - это полнометражный фильм с независимым сюжетом. События повествуют о тех 3ех (6ти? 9ти?) месяцах, которые авторы сериала пропустили в конце финальной серии.
-Качество: BDRip
Формат: MKV
Видео кодек: H.264
Аудио кодек: AC3, DTS
Видео: AVC at 8 975 Kbps 1920 x 1080 (1.778) at 23.976 fps 0.181 bit/pixel
Аудио Rus: 48 kHz, AC3 Dolby Digital, 2/0 (L,R) ch, ~192 kbps(Дублированный "REN-TV")
Аудио Rus: 48 kHz, AC3 Dolby Digital, 3/2 (L,C,R,l,r) + LFE ch, ~384 kbps(Многоголосый "С.Р.И.")
Аудио Rus: 48 kHz, AC3 Dolby Digital, 3/2 (L,C,R,l,r) + LFE ch, ~384 kbps(Многолосый "NovaFilm")
Аудио Eng: 48 kHz, DTS, 3/2 (L,C,R,l,r) + LFE ch, ~1510.00 kbps avg(Original)
Субтитры: Russian (forced), English
- -

MI

General
Format : Matroska
File size : 7.12 GiB
Duration : 1h 29mn
Overall bit rate : 11.4 Mbps
Movie name : Prison Break S03E01
Encoded date : UTC 2011-07-03 10:37:29
Writing application : mkvmerge v3.3.0 ('Language') built on Mar 24 2010 14:59:24
Writing library : libebml v0.8.0 + libmatroska v0.9.0
Video
ID : 1
Format : AVC
Format/Info : Advanced Video Codec
Format profile : High@L4.1
Format settings, CABAC : Yes
Format settings, ReFrames : 4 frames
Muxing mode : Container profile=Unknown@4.1
Codec ID : V_MPEG4/ISO/AVC
Duration : 1h 29mn
Bit rate : 8 975 Kbps
Width : 1 920 pixels
Height : 1 080 pixels
Display aspect ratio : 16:9
Frame rate : 23.976 fps
Color space : YUV
Chroma subsampling : 4:2:0
Bit depth : 8 bits
Scan type : Progressive
Bits/(Pixel*Frame) : 0.181
Stream size : 5.45 GiB (76%)
Title : Prison.Break.The.Final.Break.2009
Writing library : x264 core 67 r1153M 7b6ce6a
Encoding settings : cabac=1 / ref=4 / deblock=1:-3:-3 / analyse=0x3:0x113 / me=umh / subme=9 / psy_rd=1.1:0.3 / mixed_ref=1 / me_range=26 / chroma_me=1 / trellis=1 / 8x8dct=1 / cqm=2 / deadzone=21,11 / chroma_qp_offset=-4 / threads=12 / nr=0 / decimate=1 / mbaff=0 / bframes=3 / b_pyramid=1 / b_adapt=1 / b_bias=0 / direct=3 / wpredb=1 / keyint=250 / keyint_min=25 / scenecut=40 / rc=2pass / bitrate=8975 / ratetol=1.0 / qcomp=0.60 / qpmin=10 / qpmax=51 / qpstep=4 / cplxblur=20.0 / qblur=0.5 / ip_ratio=1.40 / pb_ratio=1.30 / aq=1:0.90
Language : English
Audio #1
ID : 2
Format : AC-3
Format/Info : Audio Coding 3
Mode extension : CM (complete main)
Codec ID : A_AC3
Duration : 1h 29mn
Bit rate mode : Constant
Bit rate : 192 Kbps
Channel(s) : 2 channels
Channel positions : Front: L R
Sampling rate : 48.0 KHz
Bit depth : 16 bits
Stream size : 122 MiB (2%)
Title : AC3 2.0 @ 192 kbps [Ren-Tv]
Language : Russian
Audio #2
ID : 3
Format : AC-3
Format/Info : Audio Coding 3
Mode extension : CM (complete main)
Codec ID : A_AC3
Duration : 1h 29mn
Bit rate mode : Constant
Bit rate : 384 Kbps
Channel(s) : 6 channels
Channel positions : Front: L C R, Side: L R, LFE
Sampling rate : 48.0 KHz
Bit depth : 16 bits
Stream size : 245 MiB (3%)
Title : AC3 5.1 @ 384 kbps [SRI]
Language : Russian
Audio #3
ID : 4
Format : AC-3
Format/Info : Audio Coding 3
Mode extension : CM (complete main)
Codec ID : A_AC3
Duration : 1h 29mn
Bit rate mode : Constant
Bit rate : 384 Kbps
Channel(s) : 6 channels
Channel positions : Front: L C R, Side: L R, LFE
Sampling rate : 48.0 KHz
Bit depth : 16 bits
Stream size : 245 MiB (3%)
Title : AC3 5.1 @ 384 kbps [NovaFilm]
Language : Russian
Audio #4
ID : 5
Format : DTS
Format/Info : Digital Theater Systems
Codec ID : A_DTS
Duration : 1h 29mn
Bit rate mode : Constant
Bit rate : 1 510 Kbps
Channel(s) : 6 channels
Channel positions : Front: L C R, Side: L R, LFE
Sampling rate : 48.0 KHz
Bit depth : 24 bits
Stream size : 962 MiB (13%)
Title : DTS 5.1 @ 1510 kbps
Language : English
Text #1
ID : 6
Format : UTF-8
Codec ID : S_TEXT/UTF8
Codec ID/Info : UTF-8 Plain Text
Title : FORCED
Language : Russian
Text #2
ID : 7
Format : UTF-8
Codec ID : S_TEXT/UTF8
Codec ID/Info : UTF-8 Plain Text
Language : English

Список серий

-

Если ваш рейтинг упадет ниже 0,3, вы не сможете скачивать торренты! Подробнее о рейтинге.

[erzsebet.org].t29987.torrent 
Торрент: Зарегистрирован [ 2019-01-19 18:21 ]

Скачать .torrent

Скачать

515 KB

Статус: проверено
Скачан: 0 раз
Размер: 398,84 GB
Поблагодарили: 0  Спасибо
terms.php
[Профиль]  [ЛС] 
Показать сообщения:    
Ответить на тему

Текущее время: 19-Авг 11:54

Часовой пояс: UTC + 3



Вы не можете начинать темы
Вы не можете отвечать на сообщения
Вы не можете редактировать свои сообщения
Вы не можете удалять свои сообщения
Вы не можете голосовать в опросах
Вы не можете прикреплять файлы к сообщениям
Вы можете скачивать файлы