Солнечные каникулы / Holiday in the Sun (Стив Перселл / Steve Purcell) [2001, США, Комедия, семейный, DVDRip] MVO

Ответить на тему
Статистика раздачи
Размер:  1.37 GB   |    Зарегистрирован:  3 дня   |    Скачан:  0 раз
Сидов:  1   Личеров:  1  
 
 
Автор Сообщение

erzsebet ®

Стаж: 18 лет

Сообщений: 653647

Откуда: Венгрия

Создавать темы 18-Окт-2020 04:49  |  Сменить автора

[Цитировать] 

Солнечные каникулы / Holiday in the Sun
Год выпуска: 2001
Страна: США, Dualstar Productions
Жанр: Комедия, семейный
Продолжительность: 01:28:03
Перевод: Профессиональный (многоголосый закадровый)
Русские субтитры: нет
Режиссер: Стив Перселл / Steve Purcell
В ролях: Мэри-Кейт Олсен, Эшли Олсен, Маркус Флэнэгэн, Джэми Роуз, Джефф Олтмэн, Уэнди Шаал, Остин Николс, Бен Истер, Билли Эрон Браун, Эшли Хьюз, Мигэн Фокс
Описание: Сестры - близнецы Алекс и Мэдисон (Эшли и Мэри-Кейт Олсен - "Рот на замок!", "Побеждая Лондон") поначалу недовольные тем, что им придется провести каникулы на Багамах вместо поездки с друзьями на Гавайи, в конце концов смирились с судьбой. Пышная тропическая природа, водные забавы и масса других развлечений - это совсем неплохо! Симпатичные парни добавили остроты ощущений. А уж с соперницами они всегда расправлялись легко! Вдобавок ко всему их ожидало настоящее приключение! Будет чем удивить друзей.
Качество: DVDRip
Формат: AVI
Видео: 704x512 (1.38:1), 25 fps, XviD MPEG-4 ~1828 kbps avg, 0.20 bit/pixel
Аудио: 48 kHz, AC3 Dolby Digital, 3/2 (L,C,R,l,r) + LFE ch, ~384 kbps

MediaInfo

General
Complete name : Solnechnye.kanikuly.2001.avi
Format : AVI
Format/Info : Audio Video Interleave
File size : 1.37 GiB
Duration : 1 h 28 min
Overall bit rate : 2 223 kb/s
Writing application : VirtualDubMod 1.5.10.2 (build 2540/release)
Writing library : VirtualDubMod build 2540/release
Video
ID : 0
Format : MPEG-4 Visual
Format profile : Advanced [email protected]
Format settings : BVOP2
Format settings, BVOP : 2
Format settings, QPel : No
Format settings, GMC : No warppoints
Format settings, Matrix : Default (H.263)
Muxing mode : Packed bitstream
Codec ID : XVID
Codec ID/Hint : XviD
Duration : 1 h 28 min
Bit rate : 1 829 kb/s
Width : 704 pixels
Height : 512 pixels
Display aspect ratio : 1.375
Frame rate : 25.000 FPS
Color space : YUV
Chroma subsampling : 4:2:0
Bit depth : 8 bits
Scan type : Progressive
Compression mode : Lossy
Bits/(Pixel*Frame) : 0.203
Stream size : 1.12 GiB (82%)
Writing library : XviD 1.2.1 (UTC 2008-12-04)
Audio
ID : 1
Format : AC-3
Format/Info : Audio Coding 3
Commercial name : Dolby Digital
Codec ID : 2000
Duration : 1 h 28 min
Bit rate mode : Constant
Bit rate : 384 kb/s
Channel(s) : 6 channels
Channel layout : L R C LFE Ls Rs
Sampling rate : 48.0 kHz
Frame rate : 31.250 FPS (1536 SPF)
Bit depth : 16 bits
Compression mode : Lossy
Stream size : 242 MiB (17%)
Alignment : Split accross interleaves
Interleave, duration : 40 ms (1.00 video frame)
Interleave, preload duration : 500 ms
Service kind : Complete Main

Скриншоты

[erzsebet.org].t3075608.torrent
Торрент: Зарегистрирован [ 2020-10-18 04:49 ]

Скачать .torrent

Скачать

14 KB

Статус: проверено
Скачан: 0 раз
Размер: 1.37 GB
Поблагодарили: 0  Спасибо
terms.php
[Профиль]  [ЛС] 
Показать сообщения:    
Ответить на тему

Текущее время: 22-Окт 03:40

Часовой пояс: UTC + 3



Вы не можете начинать темы
Вы не можете отвечать на сообщения
Вы не можете редактировать свои сообщения
Вы не можете удалять свои сообщения
Вы не можете голосовать в опросах
Вы не можете прикреплять файлы к сообщениям
Вы можете скачивать файлы