Мост / Bron / Broen / Сезоны: 1-4 / Серии: 1-38 из 38 (Хенрик Георгссон, Румле Хаммерих, Шарлотта Зилинг) 2011-2018, Швеция, Дания, Германия, Триллер, криминал, детектив, BDRip, HDTVRip] MVO (Amedia) + Original

Ответить на тему
Статистика раздачи
Размер:  27,39 GB   |    Зарегистрирован:  6 месяцев 20 дней   |    Скачан:  0 раз

Полного источника не было: Никогда

 
 
 
Автор Сообщение

erzsebet ®

Стаж: 17 лет

Сообщений: 73897

Создавать темы 30-Янв-2019 07:31  |  Сменить автора

[Цитировать] 

Мост / Bron / Broen
- Год выпуска: 2011-2018
Страна: Швеция, Дания, Германия
Жанр: Триллер, криминал, детектив
Продолжительность: ~ 00:58:00-Перевод: Профессиональный (многоголосый закадровый) | Amedia-Режиссёр: Хенрик Георгссон, Румле Хаммерих, Шарлотта Зилинг-В ролях: София Хелин, Ким Бодния, Туре Линдхардт, Даг Малмберг, Сара Боберг, Рафаэль Петтерссон, Гэбриел Флорес Жаир, Пак Шарбау, Ларс Симонсен, Хенрик Лундстрем-Описание: На самой середине Эресуннского моста, связывающего Швецию с Данией, происходит краткое отключение электроэнергии. Появление освещения сопровождается обнаружением незнакомого объекта: тела женщины, обращенного головой к Швеции, ногами — к Дании. Чья полиция должна руководить расследованием убийства подброшенной за несколько минут мертвой женщины?- -Качество: BDRip, HDTVRip
Формат: AVI
Видео: XviD, 720x400, 25 fps, ~1500 kbps
Аудио #1: 48 kHz, MPEG Layer 3, 2 ch, ~128.00 kbps | Rus
Аудио #2: 48 kHz, MPEG Layer 3, 2 ch, ~128.00 kbps | Danish
Субтитры: нет
Реклама: Отсутствует
BDRip 1-3 сезон, HDTVRip 4 сезон
-

MediaInfo


Format : AVI
Format/Info : Audio Video Interleave
File size : 738 MiB
Duration : 58 min 17 s
Overall bit rate : 1 770 kb/s
Writing application : VirtualDubMod 1.5.10.2 (build 2540/release)
Writing library : VirtualDubMod build 2540/release
Video
ID : 0
Format : MPEG-4 Visual
Format profile : Advanced Simple@L5
Format settings : BVOP1 / Custom Matrix
Format settings, BVOP : 1
Format settings, QPel : No
Format settings, GMC : No warppoints
Format settings, Matrix : Custom
Codec ID : XVID
Codec ID/Hint : XviD
Duration : 58 min 17 s
Bit rate : 1 500 kb/s
Width : 720 pixels
Height : 400 pixels
Display aspect ratio : 16:9
Frame rate : 25.000 FPS
Color space : YUV
Chroma subsampling : 4:2:0
Bit depth : 8 bits
Scan type : Progressive
Compression mode : Lossy
Bits/(Pixel*Frame) : 0.208
Stream size : 625 MiB (85%)
Writing library : XviD 73
Audio #1
ID : 1
Format : MPEG Audio
Format version : Version 1
Format profile : Layer 3
Format settings : Joint stereo / MS Stereo
Codec ID : 55
Codec ID/Hint : MP3
Duration : 58 min 15 s
Bit rate mode : Constant
Bit rate : 128 kb/s
Channel(s) : 2 channels
Sampling rate : 48.0 kHz
Compression mode : Lossy
Stream size : 53.3 MiB (7%)
Alignment : Split accross interleaves
Interleave, duration : 40 ms (1.00 video frame)
Interleave, preload duratio : 500 ms
Audio #2
ID : 2
Format : MPEG Audio
Format version : Version 1
Format profile : Layer 3
Format settings : Joint stereo
Codec ID : 55
Codec ID/Hint : MP3
Duration : 58 min 15 s
Bit rate mode : Constant
Bit rate : 128 kb/s
Channel(s) : 2 channels
Sampling rate : 48.0 kHz
Compression mode : Lossy
Stream size : 53.3 MiB (7%)
Alignment : Split accross interleaves
Interleave, duration : 40 ms (1.00 video frame)
Interleave, preload duratio : 500 ms
deo frame)
Interleave, preload duratio : 500 ms

Скриншоты

-

Если ваш рейтинг упадет ниже 0,3, вы не сможете скачивать торренты! Подробнее о рейтинге.

[erzsebet.org].t31176.torrent 
Торрент: Зарегистрирован [ 2019-01-30 07:31 ]

Скачать .torrent

Скачать

139 KB

Статус: проверено
Скачан: 0 раз
Размер: 27,39 GB
Поблагодарили: 0  Спасибо
terms.php
[Профиль]  [ЛС] 
Показать сообщения:    
Ответить на тему

Текущее время: 19-Авг 11:53

Часовой пояс: UTC + 3



Вы не можете начинать темы
Вы не можете отвечать на сообщения
Вы не можете редактировать свои сообщения
Вы не можете удалять свои сообщения
Вы не можете голосовать в опросах
Вы не можете прикреплять файлы к сообщениям
Вы можете скачивать файлы