No Cum Dodging Allowed 4 (Mike John / Mike John Productions) [2004, Gonzo, Group Sex, Anal, A2M, Blowbang, DP, Gangbang, Swallow, DVD9]

Ответить на тему
 
Автор Сообщение

erzsebet ®

Стаж: 18 лет

Сообщений: 1005494

Откуда: Венгрия

Создавать темы 18-Ноя-2020 03:36  |  Сменить автора

[Цитировать] 

No Cum Dodging Allowed 4


Title: No Cum Dodging Allowed 4
Release Date: 2004
Country: USA
Genres: Gonzo, Group Sex, Anal, A2M, Blowbang, DP, Gangbang, Swallow
Duration: 181 min
Language: English
Director: Mike John & Tim Von Swine
Studio / Distributor: Mike John Productions / Red Light District / Jules Jordan Video
Starring:
Scene 1. Melissa Lauren, black_guy, Brian Pumper, guy, Marco Banderas, Tone Capone
Scene 2. Melissa Lauren, 3 guys
Scene 3. Melissa Lauren, Brian Surewood, Erik Everhard, John Strong
Scene 4. Melissa Lauren, Jake Malone
Scene 5. RayVeness, 2 black_guys, 2 guys
Scene 6. RayVeness, Brian Surewood, Jake Malone, John Strong
Scene 7. Chiquita Lopez, 3 black_guys, guy
Scene 8. Chiquita Lopez, Brian Surewood, Erik Everhard, John Strong, Jon Dough, Michael Stefano
Scene 9. Katin, 4 guys, Arnold Schwartzenpecker
Scene 10. Katin, Brian Surewood, Erik Everhard, Jon Dough
Scene 11. Tyla Wynn, Brad Baldwin, Brian Surewood, John Strong, Juan Cuba, Mark Zane
Scene 12. Tyla Wynn, Brian Surewood, John Strong
Scene 13. Tyla Wynn, Brian Surewood, John Strong
Description:
These girls truly are cum junkies! They don't just want cum shot down their throat, their very lives depend on it! Cum check out over 3 hours of cum gargling, spermburps, blowgangs, DP's and Ass-to-Mouth, which is what No Cum Dodging Allowed is all about!
Quality: DVD9
Format: DVD-Video

MediaInfo

General
Complete name : /media/erzsebet/DVDVolume/VIDEO_TS/VIDEO_TS.BUP
Format : DVD Video
Format profile : Menu
File size : 16.0 KiB
Overall bit rate mode : Variable
FileExtension_Invalid : ifo
Video
ID : 224 (0xE0)
Format : MPEG Video
Format version : Version 2
Bit rate mode : Variable
Width : 720 pixels
Height : 480 pixels
Display aspect ratio : 4:3
Frame rate : 29.970 (29970/1000) FPS
Standard : NTSC
Compression mode : Lossy
Audio
Format : AC-3
Format/Info : Audio Coding 3
Channel(s) : 1 channel
Sampling rate : 48.0 kHz
Compression mode : Lossy
General
Complete name : /media/erzsebet/DVDVolume/VIDEO_TS/VIDEO_TS.IFO
Format : DVD Video
Format profile : Menu
File size : 16.0 KiB
Overall bit rate mode : Variable
Video
ID : 224 (0xE0)
Format : MPEG Video
Format version : Version 2
Bit rate mode : Variable
Width : 720 pixels
Height : 480 pixels
Display aspect ratio : 4:3
Frame rate : 29.970 (29970/1000) FPS
Standard : NTSC
Compression mode : Lossy
Audio
Format : AC-3
Format/Info : Audio Coding 3
Channel(s) : 1 channel
Sampling rate : 48.0 kHz
Compression mode : Lossy
General
Complete name : /media/erzsebet/DVDVolume/VIDEO_TS/VTS_01_0.BUP
Format : DVD Video
Format profile : Program
File size : 126 KiB
Duration : 3 h 0 min
Overall bit rate mode : Variable
Overall bit rate : 95 b/s
FileExtension_Invalid : ifo
Video
ID : 224 (0xE0)
Format : MPEG Video
Format version : Version 2
Duration : 3 h 0 min
Bit rate mode : Variable
Width : 720 pixels
Height : 480 pixels
Display aspect ratio : 4:3
Frame rate : 29.970 (29970/1000) FPS
Standard : NTSC
Compression mode : Lossy
Audio
ID : 128 (0x80)
Format : AC-3
Format/Info : Audio Coding 3
Duration : 3 h 0 min
Channel(s) : 2 channels
Sampling rate : 48.0 kHz
Compression mode : Lossy
Language : English
Menu #1
Duration : 3 h 0 min
00:00:00.000 : Chapter 1
00:03:06.500 : Chapter 2
00:07:08.500 : Chapter 3
00:11:13.500 : Chapter 4
00:14:52.000 : Chapter 5
00:15:51.000 : Chapter 6
00:18:06.500 : Chapter 7
00:19:11.000 : Chapter 8
00:21:14.000 : Chapter 9
00:35:14.500 : Chapter 10
00:36:43.500 : Chapter 11
00:38:23.000 : Chapter 12
00:41:43.000 : Chapter 13
00:42:38.500 : Chapter 14
00:43:03.500 : Chapter 15
00:47:50.500 : Chapter 16
00:50:02.000 : Chapter 17
00:52:44.500 : Chapter 18
00:55:46.500 : Chapter 19
01:01:27.000 : Chapter 20
01:05:38.500 : Chapter 21
01:10:54.500 : Chapter 22
01:12:27.000 : Chapter 23
01:14:28.500 : Chapter 24
01:15:20.000 : Chapter 25
01:19:33.000 : Chapter 26
01:21:36.000 : Chapter 27
01:23:26.000 : Chapter 28
01:26:11.000 : Chapter 29
01:27:53.500 : Chapter 30
01:29:42.500 : Chapter 31
01:39:40.500 : Chapter 32
01:46:13.000 : Chapter 33
01:48:26.000 : Chapter 34
01:51:58.500 : Chapter 35
01:56:11.000 : Chapter 36
01:58:09.500 : Chapter 37
01:59:46.500 : Chapter 38
02:02:18.500 : Chapter 39
02:06:16.500 : Chapter 40
02:07:52.500 : Chapter 41
02:11:27.500 : Chapter 42
02:12:52.500 : Chapter 43
02:16:44.500 : Chapter 44
02:18:23.500 : Chapter 45
02:20:01.500 : Chapter 46
02:22:22.000 : Chapter 47
02:28:13.500 : Chapter 48
02:30:32.500 : Chapter 49
02:34:13.000 : Chapter 50
02:37:14.500 : Chapter 51
02:37:53.500 : Chapter 52
02:41:08.000 : Chapter 53
02:42:37.000 : Chapter 54
02:44:42.500 : Chapter 55
02:45:39.000 : Chapter 56
02:48:15.000 : Chapter 57
02:49:02.500 : Chapter 58
02:51:39.500 : Chapter 59
02:54:32.000 : Chapter 60
02:55:29.000 : Chapter 61
02:58:28.000 : Chapter 62
02:59:45.500 : Chapter 63
03:00:49.900 : Chapter 64
List (Audio) : 0
Menu #2
Duration : 24 min 42 s
00:00:00.000 : Chapter 1
00:00:41.000 : Chapter 2
00:00:46.000 : Chapter 3
00:01:16.000 : Chapter 4
00:01:16.600 : Chapter 5
00:01:29.600 : Chapter 6
00:02:02.600 : Chapter 7
00:02:07.600 : Chapter 8
00:02:08.680 : Chapter 9
00:02:23.680 : Chapter 10
00:02:25.400 : Chapter 11
00:03:04.400 : Chapter 12
00:03:25.400 : Chapter 13
00:04:04.400 : Chapter 14
00:04:22.400 : Chapter 15
List (Audio) : 0
Menu #3
General
Complete name : /media/erzsebet/DVDVolume/VIDEO_TS/VTS_01_0.IFO
Format : DVD Video
Format profile : Program
File size : 126 KiB
Duration : 3 h 0 min
Overall bit rate mode : Variable
Overall bit rate : 95 b/s
Video
ID : 224 (0xE0)
Format : MPEG Video
Format version : Version 2
Duration : 3 h 0 min
Bit rate mode : Variable
Width : 720 pixels
Height : 480 pixels
Display aspect ratio : 4:3
Frame rate : 29.970 (29970/1000) FPS
Standard : NTSC
Compression mode : Lossy
Audio
ID : 128 (0x80)
Format : AC-3
Format/Info : Audio Coding 3
Duration : 3 h 0 min
Channel(s) : 2 channels
Sampling rate : 48.0 kHz
Compression mode : Lossy
Language : English
Menu #1
Duration : 3 h 0 min
00:00:00.000 : Chapter 1
00:03:06.500 : Chapter 2
00:07:08.500 : Chapter 3
00:11:13.500 : Chapter 4
00:14:52.000 : Chapter 5
00:15:51.000 : Chapter 6
00:18:06.500 : Chapter 7
00:19:11.000 : Chapter 8
00:21:14.000 : Chapter 9
00:35:14.500 : Chapter 10
00:36:43.500 : Chapter 11
00:38:23.000 : Chapter 12
00:41:43.000 : Chapter 13
00:42:38.500 : Chapter 14
00:43:03.500 : Chapter 15
00:47:50.500 : Chapter 16
00:50:02.000 : Chapter 17
00:52:44.500 : Chapter 18
00:55:46.500 : Chapter 19
01:01:27.000 : Chapter 20
01:05:38.500 : Chapter 21
01:10:54.500 : Chapter 22
01:12:27.000 : Chapter 23
01:14:28.500 : Chapter 24
01:15:20.000 : Chapter 25
01:19:33.000 : Chapter 26
01:21:36.000 : Chapter 27
01:23:26.000 : Chapter 28
01:26:11.000 : Chapter 29
01:27:53.500 : Chapter 30
01:29:42.500 : Chapter 31
01:39:40.500 : Chapter 32
01:46:13.000 : Chapter 33
01:48:26.000 : Chapter 34
01:51:58.500 : Chapter 35
01:56:11.000 : Chapter 36
01:58:09.500 : Chapter 37
01:59:46.500 : Chapter 38
02:02:18.500 : Chapter 39
02:06:16.500 : Chapter 40
02:07:52.500 : Chapter 41
02:11:27.500 : Chapter 42
02:12:52.500 : Chapter 43
02:16:44.500 : Chapter 44
02:18:23.500 : Chapter 45
02:20:01.500 : Chapter 46
02:22:22.000 : Chapter 47
02:28:13.500 : Chapter 48
02:30:32.500 : Chapter 49
02:34:13.000 : Chapter 50
02:37:14.500 : Chapter 51
02:37:53.500 : Chapter 52
02:41:08.000 : Chapter 53
02:42:37.000 : Chapter 54
02:44:42.500 : Chapter 55
02:45:39.000 : Chapter 56
02:48:15.000 : Chapter 57
02:49:02.500 : Chapter 58
02:51:39.500 : Chapter 59
02:54:32.000 : Chapter 60
02:55:29.000 : Chapter 61
02:58:28.000 : Chapter 62
02:59:45.500 : Chapter 63
03:00:49.900 : Chapter 64
List (Audio) : 0
Menu #2
Duration : 24 min 42 s
00:00:00.000 : Chapter 1
00:00:41.000 : Chapter 2
00:00:46.000 : Chapter 3
00:01:16.000 : Chapter 4
00:01:16.600 : Chapter 5
00:01:29.600 : Chapter 6
00:02:02.600 : Chapter 7
00:02:07.600 : Chapter 8
00:02:08.680 : Chapter 9
00:02:23.680 : Chapter 10
00:02:25.400 : Chapter 11
00:03:04.400 : Chapter 12
00:03:25.400 : Chapter 13
00:04:04.400 : Chapter 14
00:04:22.400 : Chapter 15
List (Audio) : 0
Menu #3
General
Complete name : /media/erzsebet/DVDVolume/VIDEO_TS/VTS_01_0.VOB
Format : MPEG-PS
File size : 33.9 MiB
Duration : 29 s 984 ms
Overall bit rate mode : Variable
Overall bit rate : 9 496 kb/s
Video
ID : 224 (0xE0)
Format : MPEG Video
Format version : Version 2
Format profile : [email protected]
Format settings : CustomMatrix / BVOP
Format settings, BVOP : Yes
Format settings, Matrix : Custom
Format settings, GOP : M=3, N=15
Format settings, picture structure : Frame
Duration : 33 ms
Bit rate mode : Variable
Bit rate : 9 115 kb/s
Maximum bit rate : 9 800 kb/s
Width : 720 pixels
Height : 480 pixels
Display aspect ratio : 4:3
Frame rate : 29.970 (30000/1001) FPS
Standard : NTSC
Color space : YUV
Chroma subsampling : 4:2:0
Bit depth : 8 bits
Scan type : Interlaced
Scan order : Top Field First
Compression mode : Lossy
Bits/(Pixel*Frame) : 0.880
Time code of first frame : 01:00:00:00
Time code source : Group of pictures header
GOP, Open/Closed : Open
GOP, Open/Closed of first frame : Closed
Stream size : 37.1 KiB (0%)
Audio
ID : 189 (0xBD)-128 (0x80)
Format : AC-3
Format/Info : Audio Coding 3
Commercial name : Dolby Digital
Muxing mode : DVD-Video
Duration : 29 s 984 ms
Bit rate mode : Constant
Bit rate : 192 kb/s
Channel(s) : 2 channels
Channel layout : L R
Sampling rate : 48.0 kHz
Frame rate : 31.250 FPS (1536 SPF)
Bit depth : 16 bits
Compression mode : Lossy
Stream size : 703 KiB (2%)
Service kind : Complete Main
Text
ID : 189 (0xBD)-32 (0x20)
Format : RLE
Format/Info : Run-length encoding
Muxing mode : DVD-Video
Delay relative to video : 3 s 3 ms
Menu
General
Complete name : /media/erzsebet/DVDVolume/VIDEO_TS/VTS_01_1.VOB
Format : MPEG-PS
File size : 1 024 MiB
Duration : 25 min 51 s
Overall bit rate mode : Variable
Overall bit rate : 5 537 kb/s
Video
ID : 224 (0xE0)
Format : MPEG Video
Format version : Version 2
Format profile : [email protected]
Format settings : CustomMatrix / BVOP
Format settings, BVOP : Yes
Format settings, Matrix : Custom
Format settings, GOP : M=3, N=15
Format settings, picture structure : Frame
Duration : 25 min 51 s
Bit rate mode : Variable
Bit rate : 5 235 kb/s
Maximum bit rate : 6 000 kb/s
Width : 720 pixels
Height : 480 pixels
Display aspect ratio : 4:3
Frame rate : 29.970 (30000/1001) FPS
Standard : NTSC
Color space : YUV
Chroma subsampling : 4:2:0
Bit depth : 8 bits
Scan type : Interlaced
Scan order : Top Field First
Compression mode : Lossy
Bits/(Pixel*Frame) : 0.505
Time code of first frame : 01:00:18:21
Time code source : Group of pictures header
GOP, Open/Closed : Closed
Stream size : 968 MiB (95%)
Audio
ID : 189 (0xBD)-128 (0x80)
Format : AC-3
Format/Info : Audio Coding 3
Commercial name : Dolby Digital
Muxing mode : DVD-Video
Duration : 25 min 51 s
Bit rate mode : Constant
Bit rate : 192 kb/s
Channel(s) : 2 channels
Channel layout : L R
Sampling rate : 48.0 kHz
Frame rate : 31.250 FPS (1536 SPF)
Bit depth : 16 bits
Compression mode : Lossy
Stream size : 35.5 MiB (3%)
Service kind : Complete Main
Menu
General
Complete name : /media/erzsebet/DVDVolume/VIDEO_TS/VTS_01_2.VOB
Format : MPEG-PS
File size : 1 024 MiB
Duration : 25 min 40 s
Overall bit rate mode : Variable
Overall bit rate : 5 576 kb/s
Video
ID : 224 (0xE0)
Format : MPEG Video
Format version : Version 2
Format profile : [email protected]
Format settings : CustomMatrix / BVOP
Format settings, BVOP : Yes
Format settings, Matrix : Custom
Format settings, GOP : M=3, N=15
Format settings, picture structure : Frame
Duration : 25 min 40 s
Bit rate mode : Variable
Bit rate : 5 273 kb/s
Maximum bit rate : 6 000 kb/s
Width : 720 pixels
Height : 480 pixels
Display aspect ratio : 4:3
Frame rate : 29.970 (30000/1001) FPS
Standard : NTSC
Color space : YUV
Chroma subsampling : 4:2:0
Bit depth : 8 bits
Scan type : Interlaced
Scan order : Top Field First
Compression mode : Lossy
Bits/(Pixel*Frame) : 0.509
Time code of first frame : 01:26:08:21
Time code source : Group of pictures header
GOP, Open/Closed : Closed
Stream size : 968 MiB (95%)
Audio
ID : 189 (0xBD)-128 (0x80)
Format : AC-3
Format/Info : Audio Coding 3
Commercial name : Dolby Digital
Muxing mode : DVD-Video
Duration : 25 min 40 s
Bit rate mode : Constant
Bit rate : 192 kb/s
Channel(s) : 2 channels
Channel layout : L R
Sampling rate : 48.0 kHz
Frame rate : 31.250 FPS (1536 SPF)
Bit depth : 16 bits
Compression mode : Lossy
Delay relative to video : -382 ms
Stream size : 35.3 MiB (3%)
Service kind : Complete Main
Menu
General
Complete name : /media/erzsebet/DVDVolume/VIDEO_TS/VTS_01_3.VOB
Format : MPEG-PS
File size : 1 024 MiB
Duration : 25 min 40 s
Overall bit rate mode : Variable
Overall bit rate : 5 578 kb/s
Video
ID : 224 (0xE0)
Format : MPEG Video
Format version : Version 2
Format profile : [email protected]
Format settings : CustomMatrix / BVOP
Format settings, BVOP : Yes
Format settings, Matrix : Custom
Format settings, GOP : M=3, N=15
Format settings, picture structure : Frame
Duration : 25 min 39 s
Bit rate mode : Variable
Bit rate : 5 275 kb/s
Maximum bit rate : 6 000 kb/s
Width : 720 pixels
Height : 480 pixels
Display aspect ratio : 4:3
Frame rate : 29.970 (30000/1001) FPS
Standard : NTSC
Color space : YUV
Chroma subsampling : 4:2:0
Bit depth : 8 bits
Scan type : Interlaced
Scan order : Top Field First
Compression mode : Lossy
Bits/(Pixel*Frame) : 0.509
Time code of first frame : 01:51:47:21
Time code source : Group of pictures header
GOP, Open/Closed : Closed
Stream size : 968 MiB (95%)
Audio
ID : 189 (0xBD)-128 (0x80)
Format : AC-3
Format/Info : Audio Coding 3
Commercial name : Dolby Digital
Muxing mode : DVD-Video
Duration : 25 min 40 s
Bit rate mode : Constant
Bit rate : 192 kb/s
Channel(s) : 2 channels
Channel layout : L R
Sampling rate : 48.0 kHz
Frame rate : 31.250 FPS (1536 SPF)
Bit depth : 16 bits
Compression mode : Lossy
Delay relative to video : -441 ms
Stream size : 35.2 MiB (3%)
Service kind : Complete Main
Menu
General
Complete name : /media/erzsebet/DVDVolume/VIDEO_TS/VTS_01_4.VOB
Format : MPEG-PS
File size : 1 024 MiB
Duration : 25 min 40 s
Overall bit rate mode : Variable
Overall bit rate : 5 577 kb/s
Video
ID : 224 (0xE0)
Format : MPEG Video
Format version : Version 2
Format profile : [email protected]
Format settings : CustomMatrix / BVOP
Format settings, BVOP : Yes
Format settings, Matrix : Custom
Format settings, GOP : M=3, N=15
Format settings, picture structure : Frame
Duration : 25 min 39 s
Bit rate mode : Variable
Bit rate : 5 274 kb/s
Maximum bit rate : 6 000 kb/s
Width : 720 pixels
Height : 480 pixels
Display aspect ratio : 4:3
Frame rate : 29.970 (30000/1001) FPS
Standard : NTSC
Color space : YUV
Chroma subsampling : 4:2:0
Bit depth : 8 bits
Scan type : Interlaced
Scan order : Top Field First
Compression mode : Lossy
Bits/(Pixel*Frame) : 0.509
Time code of first frame : 02:17:26:06
Time code source : Group of pictures header
GOP, Open/Closed : Closed
Stream size : 968 MiB (95%)
Audio
ID : 189 (0xBD)-128 (0x80)
Format : AC-3
Format/Info : Audio Coding 3
Commercial name : Dolby Digital
Muxing mode : DVD-Video
Duration : 25 min 40 s
Bit rate mode : Constant
Bit rate : 192 kb/s
Channel(s) : 2 channels
Channel layout : L R
Sampling rate : 48.0 kHz
Frame rate : 31.250 FPS (1536 SPF)
Bit depth : 16 bits
Compression mode : Lossy
Delay relative to video : -448 ms
Stream size : 35.3 MiB (3%)
Service kind : Complete Main
Menu
General
Complete name : /media/erzsebet/DVDVolume/VIDEO_TS/VTS_01_5.VOB
Format : MPEG-PS
File size : 1 024 MiB
Duration : 25 min 40 s
Overall bit rate mode : Variable
Overall bit rate : 5 577 kb/s
Video
ID : 224 (0xE0)
Format : MPEG Video
Format version : Version 2
Format profile : [email protected]
Format settings : CustomMatrix / BVOP
Format settings, BVOP : Yes
Format settings, Matrix : Custom
Format settings, GOP : M=3, N=15
Format settings, picture structure : Frame
Duration : 25 min 40 s
Bit rate mode : Variable
Bit rate : 5 274 kb/s
Maximum bit rate : 6 000 kb/s
Width : 720 pixels
Height : 480 pixels
Display aspect ratio : 4:3
Frame rate : 29.970 (30000/1001) FPS
Standard : NTSC
Color space : YUV
Chroma subsampling : 4:2:0
Bit depth : 8 bits
Scan type : Interlaced
Scan order : Top Field First
Compression mode : Lossy
Bits/(Pixel*Frame) : 0.509
Time code of first frame : 02:43:04:21
Time code source : Group of pictures header
GOP, Open/Closed : Closed
Stream size : 968 MiB (95%)
Audio
ID : 189 (0xBD)-128 (0x80)
Format : AC-3
Format/Info : Audio Coding 3
Commercial name : Dolby Digital
Muxing mode : DVD-Video
Duration : 25 min 40 s
Bit rate mode : Constant
Bit rate : 192 kb/s
Channel(s) : 2 channels
Channel layout : L R
Sampling rate : 48.0 kHz
Frame rate : 31.250 FPS (1536 SPF)
Bit depth : 16 bits
Compression mode : Lossy
Delay relative to video : -326 ms
Stream size : 35.3 MiB (3%)
Service kind : Complete Main
Menu
General
Complete name : /media/erzsebet/DVDVolume/VIDEO_TS/VTS_01_6.VOB
Format : MPEG-PS
File size : 1 024 MiB
Duration : 25 min 40 s
Overall bit rate mode : Variable
Overall bit rate : 5 577 kb/s
Video
ID : 224 (0xE0)
Format : MPEG Video
Format version : Version 2
Format profile : [email protected]
Format settings : CustomMatrix / BVOP
Format settings, BVOP : Yes
Format settings, Matrix : Custom
Format settings, GOP : M=3, N=15
Format settings, picture structure : Frame
Duration : 25 min 39 s
Bit rate mode : Variable
Bit rate : 5 274 kb/s
Maximum bit rate : 6 000 kb/s
Width : 720 pixels
Height : 480 pixels
Display aspect ratio : 4:3
Frame rate : 29.970 (30000/1001) FPS
Standard : NTSC
Color space : YUV
Chroma subsampling : 4:2:0
Bit depth : 8 bits
Scan type : Interlaced
Scan order : Top Field First
Compression mode : Lossy
Bits/(Pixel*Frame) : 0.509
Time code of first frame : 03:08:43:21
Time code source : Group of pictures header
GOP, Open/Closed : Closed
Stream size : 968 MiB (95%)
Audio
ID : 189 (0xBD)-128 (0x80)
Format : AC-3
Format/Info : Audio Coding 3
Commercial name : Dolby Digital
Muxing mode : DVD-Video
Duration : 25 min 40 s
Bit rate mode : Constant
Bit rate : 192 kb/s
Channel(s) : 2 channels
Channel layout : L R
Sampling rate : 48.0 kHz
Frame rate : 31.250 FPS (1536 SPF)
Bit depth : 16 bits
Compression mode : Lossy
Delay relative to video : -577 ms
Stream size : 35.3 MiB (3%)
Service kind : Complete Main
Menu
General
Complete name : /media/erzsebet/DVDVolume/VIDEO_TS/VTS_01_7.VOB
Format : MPEG-PS
File size : 1 024 MiB
Duration : 25 min 40 s
Overall bit rate mode : Variable
Overall bit rate : 5 578 kb/s
Video
ID : 224 (0xE0)
Format : MPEG Video
Format version : Version 2
Format profile : [email protected]
Format settings : CustomMatrix / BVOP
Format settings, BVOP : Yes
Format settings, Matrix : Custom
Format settings, GOP : M=3, N=15
Format settings, picture structure : Frame
Duration : 25 min 39 s
Bit rate mode : Variable
Bit rate : 5 275 kb/s
Maximum bit rate : 6 000 kb/s
Width : 720 pixels
Height : 480 pixels
Display aspect ratio : 4:3
Frame rate : 29.970 (30000/1001) FPS
Standard : NTSC
Color space : YUV
Chroma subsampling : 4:2:0
Bit depth : 8 bits
Scan type : Interlaced
Scan order : Top Field First
Compression mode : Lossy
Bits/(Pixel*Frame) : 0.509
Time code of first frame : 03:34:22:06
Time code source : Group of pictures header
GOP, Open/Closed : Closed
Stream size : 968 MiB (95%)
Audio
ID : 189 (0xBD)-128 (0x80)
Format : AC-3
Format/Info : Audio Coding 3
Commercial name : Dolby Digital
Muxing mode : DVD-Video
Duration : 25 min 40 s
Bit rate mode : Constant
Bit rate : 192 kb/s
Channel(s) : 2 channels
Channel layout : L R
Sampling rate : 48.0 kHz
Frame rate : 31.250 FPS (1536 SPF)
Bit depth : 16 bits
Compression mode : Lossy
Delay relative to video : -455 ms
Stream size : 35.2 MiB (3%)
Service kind : Complete Main
Menu
General
Complete name : /media/erzsebet/DVDVolume/VIDEO_TS/VTS_01_8.VOB
Format : MPEG-PS
File size : 44.6 MiB
Duration : 1 min 8 s
Overall bit rate mode : Variable
Overall bit rate : 5 430 kb/s
Video
ID : 224 (0xE0)
Format : MPEG Video
Format version : Version 2
Format profile : [email protected]
Format settings : CustomMatrix / BVOP
Format settings, BVOP : Yes
Format settings, Matrix : Custom
Format settings, GOP : M=3, N=15
Format settings, picture structure : Frame
Duration : 1 min 8 s
Bit rate mode : Variable
Bit rate : 5 130 kb/s
Maximum bit rate : 6 000 kb/s
Width : 720 pixels
Height : 480 pixels
Display aspect ratio : 4:3
Frame rate : 29.970 (30000/1001) FPS
Standard : NTSC
Color space : YUV
Chroma subsampling : 4:2:0
Bit depth : 8 bits
Scan type : Interlaced
Scan order : Top Field First
Compression mode : Lossy
Bits/(Pixel*Frame) : 0.495
Time code of first frame : 04:00:00:21
Time code source : Group of pictures header
GOP, Open/Closed : Closed
Stream size : 41.9 MiB (94%)
Audio
ID : 189 (0xBD)-128 (0x80)
Format : AC-3
Format/Info : Audio Coding 3
Commercial name : Dolby Digital
Muxing mode : DVD-Video
Duration : 1 min 8 s
Bit rate mode : Constant
Bit rate : 192 kb/s
Channel(s) : 2 channels
Channel layout : L R
Sampling rate : 48.0 kHz
Frame rate : 31.250 FPS (1536 SPF)
Bit depth : 16 bits
Compression mode : Lossy
Delay relative to video : -462 ms
Stream size : 1.58 MiB (4%)
Service kind : Complete Main
Menu
General
Complete name : /media/erzsebet/DVDVolume/VIDEO_TS/VTS_02_0.BUP
Format : DVD Video
Format profile : Program
File size : 14.0 KiB
Duration : 900 ms
Overall bit rate mode : Variable
Overall bit rate : 127 kb/s
FileExtension_Invalid : ifo
Video
ID : 224 (0xE0)
Format : MPEG Video
Format version : Version 2
Duration : 901 ms
Bit rate mode : Variable
Width : 720 pixels
Height : 480 pixels
Display aspect ratio : 4:3
Frame rate : 29.970 (29970/1000) FPS
Standard : NTSC
Compression mode : Lossy
Audio
ID : 128 (0x80)
Format : AC-3
Format/Info : Audio Coding 3
Duration : 900 ms
Channel(s) : 1 channel
Sampling rate : 48.0 kHz
Compression mode : Lossy
Menu
Duration : 900 ms
00:00:00.000 : Chapter 1
00:00:00.500 : Chapter 2
List (Audio) : 0
General
Complete name : /media/erzsebet/DVDVolume/VIDEO_TS/VTS_02_0.IFO
Format : DVD Video
Format profile : Program
File size : 14.0 KiB
Duration : 900 ms
Overall bit rate mode : Variable
Overall bit rate : 127 kb/s
Video
ID : 224 (0xE0)
Format : MPEG Video
Format version : Version 2
Duration : 901 ms
Bit rate mode : Variable
Width : 720 pixels
Height : 480 pixels
Display aspect ratio : 4:3
Frame rate : 29.970 (29970/1000) FPS
Standard : NTSC
Compression mode : Lossy
Audio
ID : 128 (0x80)
Format : AC-3
Format/Info : Audio Coding 3
Duration : 900 ms
Channel(s) : 1 channel
Sampling rate : 48.0 kHz
Compression mode : Lossy
Menu
Duration : 900 ms
00:00:00.000 : Chapter 1
00:00:00.500 : Chapter 2
List (Audio) : 0
General
Complete name : /media/erzsebet/DVDVolume/VIDEO_TS/VTS_02_1.VOB
Format : MPEG-PS
File size : 30.0 KiB
Duration : 453 ms
Overall bit rate mode : Variable
Overall bit rate : 543 kb/s
Writing library : encoded by TMPGEnc (ver. 2.524.63.181)
Video
ID : 224 (0xE0)
Format : MPEG Video
Format version : Version 2
Format profile : [email protected]
Format settings : CustomMatrix / BVOP
Format settings, BVOP : Yes
Format settings, Matrix : Custom
Duration : 453 ms
Bit rate mode : Variable
Width : 720 pixels
Height : 480 pixels
Display aspect ratio : 4:3
Frame rate : 29.970 (30000/1001) FPS
Standard : NTSC
Color space : YUV
Chroma subsampling : 4:2:0
Bit depth : 8 bits
Compression mode : Lossy
Time code of first frame : 00:00:00:00
Time code source : Group of pictures header
Writing library : TMPGEnc 2.524.63.181
Color primaries : BT.601 NTSC
Transfer characteristics : BT.601
Matrix coefficients : BT.601
Menu
General
Complete name : /media/erzsebet/DVDVolume/VIDEO_TS/VTS_03_0.BUP
Format : DVD Video
Format profile : Program
File size : 14.0 KiB
Duration : 1 s 66 ms
Overall bit rate mode : Variable
Overall bit rate : 108 kb/s
FileExtension_Invalid : ifo
Video
ID : 224 (0xE0)
Format : MPEG Video
Format version : Version 2
Duration : 1 s 68 ms
Bit rate mode : Variable
Width : 720 pixels
Height : 480 pixels
Display aspect ratio : 4:3
Frame rate : 29.970 (29970/1000) FPS
Standard : NTSC
Compression mode : Lossy
Audio
ID : 128 (0x80)
Format : AC-3
Format/Info : Audio Coding 3
Duration : 1 s 66 ms
Channel(s) : 1 channel
Sampling rate : 48.0 kHz
Compression mode : Lossy
Menu
Duration : 1 s 66 ms
00:00:00.000 : Chapter 1
List (Audio) : 0
General
Complete name : /media/erzsebet/DVDVolume/VIDEO_TS/VTS_03_0.IFO
Format : DVD Video
Format profile : Program
File size : 14.0 KiB
Duration : 1 s 66 ms
Overall bit rate mode : Variable
Overall bit rate : 108 kb/s
Video
ID : 224 (0xE0)
Format : MPEG Video
Format version : Version 2
Duration : 1 s 68 ms
Bit rate mode : Variable
Width : 720 pixels
Height : 480 pixels
Display aspect ratio : 4:3
Frame rate : 29.970 (29970/1000) FPS
Standard : NTSC
Compression mode : Lossy
Audio
ID : 128 (0x80)
Format : AC-3
Format/Info : Audio Coding 3
Duration : 1 s 66 ms
Channel(s) : 1 channel
Sampling rate : 48.0 kHz
Compression mode : Lossy
Menu
Duration : 1 s 66 ms
00:00:00.000 : Chapter 1
List (Audio) : 0
General
Complete name : /media/erzsebet/DVDVolume/VIDEO_TS/VTS_03_1.VOB
Format : MPEG-PS
File size : 42.0 KiB
Duration : 1 s 34 ms
Overall bit rate mode : Variable
Overall bit rate : 333 kb/s
Video
ID : 224 (0xE0)
Format : MPEG Video
Format version : Version 2
Format profile : [email protected]
Format settings : CustomMatrix / BVOP
Format settings, BVOP : Yes
Format settings, Matrix : Custom
Format settings, picture structure : Frame
Duration : 1 s 34 ms
Bit rate mode : Variable
Bit rate : 326 kb/s
Maximum bit rate : 9 800 kb/s
Width : 720 pixels
Height : 480 pixels
Display aspect ratio : 4:3
Frame rate : 29.970 (30000/1001) FPS
Standard : NTSC
Color space : YUV
Chroma subsampling : 4:2:0
Bit depth : 8 bits
Scan type : Interlaced
Scan order : Top Field First
Compression mode : Lossy
Bits/(Pixel*Frame) : 0.031
Time code of first frame : 01:00:00:00
Time code source : Group of pictures header
Stream size : 41.2 KiB (98%)
Menu
General
Complete name : /media/erzsebet/DVDVolume/VIDEO_TS/VTS_04_0.BUP
Format : DVD Video
Format profile : Program
File size : 14.0 KiB
Duration : 8 s 66 ms
Overall bit rate mode : Variable
Overall bit rate : 14.2 kb/s
FileExtension_Invalid : ifo
Video
ID : 224 (0xE0)
Format : MPEG Video
Format version : Version 2
Duration : 8 s 75 ms
Bit rate mode : Variable
Width : 720 pixels
Height : 480 pixels
Display aspect ratio : 4:3
Frame rate : 29.970 (29970/1000) FPS
Standard : NTSC
Compression mode : Lossy
Audio
ID : 128 (0x80)
Format : AC-3
Format/Info : Audio Coding 3
Duration : 8 s 66 ms
Channel(s) : 1 channel
Sampling rate : 48.0 kHz
Compression mode : Lossy
Menu
Duration : 8 s 66 ms
00:00:00.000 : Chapter 1
00:00:07.500 : Chapter 2
List (Audio) : 0
General
Complete name : /media/erzsebet/DVDVolume/VIDEO_TS/VTS_04_0.IFO
Format : DVD Video
Format profile : Program
File size : 14.0 KiB
Duration : 8 s 66 ms
Overall bit rate mode : Variable
Overall bit rate : 14.2 kb/s
Video
ID : 224 (0xE0)
Format : MPEG Video
Format version : Version 2
Duration : 8 s 75 ms
Bit rate mode : Variable
Width : 720 pixels
Height : 480 pixels
Display aspect ratio : 4:3
Frame rate : 29.970 (29970/1000) FPS
Standard : NTSC
Compression mode : Lossy
Audio
ID : 128 (0x80)
Format : AC-3
Format/Info : Audio Coding 3
Duration : 8 s 66 ms
Channel(s) : 1 channel
Sampling rate : 48.0 kHz
Compression mode : Lossy
Menu
Duration : 8 s 66 ms
00:00:00.000 : Chapter 1
00:00:07.500 : Chapter 2
List (Audio) : 0
General
Complete name : /media/erzsebet/DVDVolume/VIDEO_TS/VTS_04_1.VOB
Format : MPEG-PS
File size : 2.57 MiB
Duration : 8 s 41 ms
Overall bit rate mode : Variable
Overall bit rate : 2 681 kb/s
Video
ID : 224 (0xE0)
Format : MPEG Video
Format version : Version 2
Format profile : [email protected]
Format settings : CustomMatrix / BVOP
Format settings, BVOP : Yes
Format settings, Matrix : Custom
Format settings, GOP : M=3, N=15
Format settings, picture structure : Frame
Duration : 8 s 41 ms
Bit rate mode : Variable
Bit rate : 2 628 kb/s
Maximum bit rate : 9 800 kb/s
Width : 720 pixels
Height : 480 pixels
Display aspect ratio : 4:3
Frame rate : 29.970 (30000/1001) FPS
Standard : NTSC
Color space : YUV
Chroma subsampling : 4:2:0
Bit depth : 8 bits
Scan type : Interlaced
Scan order : Top Field First
Compression mode : Lossy
Bits/(Pixel*Frame) : 0.254
Time code of first frame : 01:00:00:00
Time code source : Group of pictures header
GOP, Open/Closed : Open
GOP, Open/Closed of first frame : Closed
Stream size : 2.52 MiB (98%)
Menu
General
Complete name : /media/erzsebet/DVDVolume/VIDEO_TS/VTS_05_0.BUP
Format : DVD Video
Format profile : Program
File size : 14.0 KiB
Duration : 11 s 733 ms
Overall bit rate mode : Variable
Overall bit rate : 9 775 b/s
FileExtension_Invalid : ifo
Video
ID : 224 (0xE0)
Format : MPEG Video
Format version : Version 2
Duration : 11 s 745 ms
Bit rate mode : Variable
Width : 720 pixels
Height : 480 pixels
Display aspect ratio : 4:3
Frame rate : 29.970 (29970/1000) FPS
Standard : NTSC
Compression mode : Lossy
Audio
ID : 128 (0x80)
Format : AC-3
Format/Info : Audio Coding 3
Duration : 11 s 733 ms
Channel(s) : 2 channels
Sampling rate : 48.0 kHz
Compression mode : Lossy
Language : English
Menu
Duration : 11 s 733 ms
00:00:00.000 : Chapter 1
00:00:11.200 : Chapter 2
List (Audio) : 0
General
Complete name : /media/erzsebet/DVDVolume/VIDEO_TS/VTS_05_0.IFO
Format : DVD Video
Format profile : Program
File size : 14.0 KiB
Duration : 11 s 733 ms
Overall bit rate mode : Variable
Overall bit rate : 9 775 b/s
Video
ID : 224 (0xE0)
Format : MPEG Video
Format version : Version 2
Duration : 11 s 745 ms
Bit rate mode : Variable
Width : 720 pixels
Height : 480 pixels
Display aspect ratio : 4:3
Frame rate : 29.970 (29970/1000) FPS
Standard : NTSC
Compression mode : Lossy
Audio
ID : 128 (0x80)
Format : AC-3
Format/Info : Audio Coding 3
Duration : 11 s 733 ms
Channel(s) : 2 channels
Sampling rate : 48.0 kHz
Compression mode : Lossy
Language : English
Menu
Duration : 11 s 733 ms
00:00:00.000 : Chapter 1
00:00:11.200 : Chapter 2
List (Audio) : 0
General
Complete name : /media/erzsebet/DVDVolume/VIDEO_TS/VTS_05_1.VOB
Format : MPEG-PS
File size : 6.78 MiB
Duration : 11 s 745 ms
Overall bit rate mode : Variable
Overall bit rate : 4 845 kb/s
Video
ID : 224 (0xE0)
Format : MPEG Video
Format version : Version 2
Format profile : [email protected]
Format settings : CustomMatrix / BVOP
Format settings, BVOP : Yes
Format settings, Matrix : Custom
Format settings, GOP : M=3, N=15
Format settings, picture structure : Frame
Duration : 11 s 745 ms
Bit rate mode : Variable
Bit rate : 4 556 kb/s
Maximum bit rate : 8 000 kb/s
Width : 720 pixels
Height : 480 pixels
Display aspect ratio : 4:3
Frame rate : 29.970 (30000/1001) FPS
Standard : NTSC
Color space : YUV
Chroma subsampling : 4:2:0
Bit depth : 8 bits
Scan type : Interlaced
Scan order : Top Field First
Compression mode : Lossy
Bits/(Pixel*Frame) : 0.440
Time code of first frame : 00:01:06:00
Time code source : Group of pictures header
GOP, Open/Closed : Closed
Stream size : 6.38 MiB (94%)
Audio
ID : 189 (0xBD)-128 (0x80)
Format : AC-3
Format/Info : Audio Coding 3
Commercial name : Dolby Digital
Muxing mode : DVD-Video
Duration : 11 s 712 ms
Bit rate mode : Constant
Bit rate : 192 kb/s
Channel(s) : 2 channels
Channel layout : L R
Sampling rate : 48.0 kHz
Frame rate : 31.250 FPS (1536 SPF)
Bit depth : 16 bits
Compression mode : Lossy
Stream size : 274 KiB (4%)
Service kind : Complete Main
Menu
General
Complete name : /media/erzsebet/DVDVolume/VIDEO_TS/VTS_06_0.BUP
Format : DVD Video
Format profile : Program
File size : 14.0 KiB
Duration : 4 min 8 s
Overall bit rate mode : Variable
Overall bit rate : 462 b/s
FileExtension_Invalid : ifo
Video
ID : 224 (0xE0)
Format : MPEG Video
Format version : Version 2
Duration : 4 min 8 s
Bit rate mode : Variable
Width : 720 pixels
Height : 480 pixels
Display aspect ratio : 4:3
Frame rate : 29.970 (29970/1000) FPS
Standard : NTSC
Compression mode : Lossy
Audio
ID : 128 (0x80)
Format : AC-3
Format/Info : Audio Coding 3
Duration : 4 min 8 s
Channel(s) : 2 channels
Sampling rate : 48.0 kHz
Compression mode : Lossy
Language : English
Menu
Duration : 4 min 8 s
00:00:00.000 : Chapter 1
00:04:07.466 : Chapter 2
List (Audio) : 0
General
Complete name : /media/erzsebet/DVDVolume/VIDEO_TS/VTS_06_0.IFO
Format : DVD Video
Format profile : Program
File size : 14.0 KiB
Duration : 4 min 8 s
Overall bit rate mode : Variable
Overall bit rate : 462 b/s
Video
ID : 224 (0xE0)
Format : MPEG Video
Format version : Version 2
Duration : 4 min 8 s
Bit rate mode : Variable
Width : 720 pixels
Height : 480 pixels
Display aspect ratio : 4:3
Frame rate : 29.970 (29970/1000) FPS
Standard : NTSC
Compression mode : Lossy
Audio
ID : 128 (0x80)
Format : AC-3
Format/Info : Audio Coding 3
Duration : 4 min 8 s
Channel(s) : 2 channels
Sampling rate : 48.0 kHz
Compression mode : Lossy
Language : English
Menu
Duration : 4 min 8 s
00:00:00.000 : Chapter 1
00:04:07.466 : Chapter 2
List (Audio) : 0
General
Complete name : /media/erzsebet/DVDVolume/VIDEO_TS/VTS_06_1.VOB
Format : MPEG-PS
File size : 104 MiB
Duration : 4 min 8 s
Overall bit rate mode : Variable
Overall bit rate : 3 497 kb/s
Video
ID : 224 (0xE0)
Format : MPEG Video
Format version : Version 2
Format profile : [email protected]
Format settings : CustomMatrix / BVOP
Format settings, BVOP : Yes
Format settings, Matrix : Custom
Format settings, GOP : Variable
Format settings, picture structure : Frame
Duration : 4 min 8 s
Bit rate mode : Variable
Bit rate : 3 236 kb/s
Maximum bit rate : 9 800 kb/s
Width : 720 pixels
Height : 480 pixels
Display aspect ratio : 4:3
Frame rate : 29.970 (30000/1001) FPS
Standard : NTSC
Color space : YUV
Chroma subsampling : 4:2:0
Bit depth : 8 bits
Scan type : Interlaced
Scan order : Top Field First
Compression mode : Lossy
Bits/(Pixel*Frame) : 0.312
Time code of first frame : 01:00:00:00
Time code source : Group of pictures header
GOP, Open/Closed : Open
GOP, Open/Closed of first frame : Closed
Stream size : 95.8 MiB (93%)
Audio
ID : 189 (0xBD)-128 (0x80)
Format : AC-3
Format/Info : Audio Coding 3
Commercial name : Dolby Digital
Muxing mode : DVD-Video
Duration : 4 min 8 s
Bit rate mode : Constant
Bit rate : 192 kb/s
Channel(s) : 2 channels
Channel layout : L R
Sampling rate : 48.0 kHz
Frame rate : 31.250 FPS (1536 SPF)
Bit depth : 16 bits
Compression mode : Lossy
Stream size : 5.68 MiB (5%)
Service kind : Complete Main
Menu
General
Complete name : /media/erzsebet/DVDVolume/VIDEO_TS/VTS_07_0.BUP
Format : DVD Video
Format profile : Program
File size : 14.0 KiB
Duration : 3 min 37 s
Overall bit rate mode : Variable
Overall bit rate : 527 b/s
FileExtension_Invalid : ifo
Video
ID : 224 (0xE0)
Format : MPEG Video
Format version : Version 2
Duration : 3 min 37 s
Bit rate mode : Variable
Width : 720 pixels
Height : 480 pixels
Display aspect ratio : 4:3
Frame rate : 29.970 (29970/1000) FPS
Standard : NTSC
Compression mode : Lossy
Audio
ID : 128 (0x80)
Format : AC-3
Format/Info : Audio Coding 3
Duration : 3 min 37 s
Channel(s) : 2 channels
Sampling rate : 48.0 kHz
Compression mode : Lossy
Language : English
Menu
Duration : 3 min 37 s
00:00:00.000 : Chapter 1
00:03:37.133 : Chapter 2
List (Audio) : 0
General
Complete name : /media/erzsebet/DVDVolume/VIDEO_TS/VTS_07_0.IFO
Format : DVD Video
Format profile : Program
File size : 14.0 KiB
Duration : 3 min 37 s
Overall bit rate mode : Variable
Overall bit rate : 527 b/s
Video
ID : 224 (0xE0)
Format : MPEG Video
Format version : Version 2
Duration : 3 min 37 s
Bit rate mode : Variable
Width : 720 pixels
Height : 480 pixels
Display aspect ratio : 4:3
Frame rate : 29.970 (29970/1000) FPS
Standard : NTSC
Compression mode : Lossy
Audio
ID : 128 (0x80)
Format : AC-3
Format/Info : Audio Coding 3
Duration : 3 min 37 s
Channel(s) : 2 channels
Sampling rate : 48.0 kHz
Compression mode : Lossy
Language : English
Menu
Duration : 3 min 37 s
00:00:00.000 : Chapter 1
00:03:37.133 : Chapter 2
List (Audio) : 0
General
Complete name : /media/erzsebet/DVDVolume/VIDEO_TS/VTS_07_1.VOB
Format : MPEG-PS
File size : 139 MiB
Duration : 3 min 37 s
Overall bit rate mode : Variable
Overall bit rate : 5 337 kb/s
Video
ID : 224 (0xE0)
Format : MPEG Video
Format version : Version 2
Format profile : [email protected]
Format settings : CustomMatrix / BVOP
Format settings, BVOP : Yes
Format settings, Matrix : Custom
Format settings, GOP : M=3, N=15
Format settings, picture structure : Frame
Duration : 3 min 37 s
Bit rate mode : Variable
Bit rate : 5 039 kb/s
Maximum bit rate : 6 000 kb/s
Width : 720 pixels
Height : 480 pixels
Display aspect ratio : 4:3
Frame rate : 29.970 (30000/1001) FPS
Standard : NTSC
Color space : YUV
Chroma subsampling : 4:2:0
Bit depth : 8 bits
Scan type : Interlaced
Scan order : Top Field First
Compression mode : Lossy
Bits/(Pixel*Frame) : 0.486
Time code of first frame : 00:59:59:23
Time code source : Group of pictures header
GOP, Open/Closed : Closed
Stream size : 131 MiB (94%)
Audio
ID : 189 (0xBD)-128 (0x80)
Format : AC-3
Format/Info : Audio Coding 3
Commercial name : Dolby Digital
Muxing mode : DVD-Video
Duration : 3 min 37 s
Bit rate mode : Constant
Bit rate : 192 kb/s
Channel(s) : 2 channels
Channel layout : L R
Sampling rate : 48.0 kHz
Frame rate : 31.250 FPS (1536 SPF)
Bit depth : 16 bits
Compression mode : Lossy
Stream size : 4.99 MiB (4%)
Service kind : Complete Main
Menu

Screenshots

Связанные раздачи
Добавлен Темы Размер S / L Ссылка
10-Ноя-20 16:37 No Cum Dodging Allowed 4 (Mike John / Mike John Productions) [2004, Gonzo, Group Sex, Anal, A2M, Blowbang, DP, Gangbang, Swallow, DVD9]Отв. 0 7.32 GB 4 | 0 Скачать .torrent
02-Сен-19 10:22 No Cum Dodging Allowed 4 / От спермы не уворачиваться 4 (Mike John, Jules Jordan Video) [2004 г, Anal, DP, Creampie, Deep Throat, Group, GangBang, Big Tits, Swallow, IR, VOD][Split Scenes] (Melissa Lauren, Katin, Tyla Wynn, Chiquita Lopez, Rayveness)Отв. 0 1.52 GB | Скачать .torrent
[Профиль]  [ЛС] 
Показать сообщения:    
Ответить на тему

Текущее время: 27-Ноя 23:12

Часовой пояс: UTC + 3



Вы не можете начинать темы
Вы не можете отвечать на сообщения
Вы не можете редактировать свои сообщения
Вы не можете удалять свои сообщения
Вы не можете голосовать в опросах
Вы не можете прикреплять файлы к сообщениям
Вы не можете скачивать файлы