Extreme 1 / Экстрим (Rick Strauss, PrimePork Production, Dark Alley Media) [2006 г., oral, anal, pigs, fisting, group, dildo, cumshots, pissing, DVDRip]

Ответить на тему
Статистика раздачи
Размер:  1.27 GB   |    Зарегистрирован:  5 дней   |    Скачан:  0 раз
Сидов:  1   Личеров:  1  
 
 
Автор Сообщение

ringo8 ®

Стаж: 5 месяцев 9 дней

Сообщений: 4601

Создавать темы 22-Ноя-2020 06:59  |  Сменить автора

[Цитировать] 

Extreme 1 / Экстрим

Альтернативная обложка

Год производства: 2006 г.
Страна: France
Жанр: oral, anal, pigs, fisting, group, dildo, cumshots, pissing
Продолжительность: 01:40:21
Режиссер: Rick Strauss
Студия: PrimePork Production, Dark Alley Media
В ролях: Lewis Quintini, Jo' Tey, Bastien, Bob, Rafaelo le Grand, FF Angel
Описание: "Warning: contains a fire scene!
Five new stars join PrimePork's favorite Bob in the Extreme series premier with dazzling action. In a major group scene they show continuous energy whether fucking, fisting or playing. The gorgeous black beauty Jo' Tey can't stop fucking and when you see his big equipment you know why FF Angel can't get enough of it. The heavy hung stud Lewis Quintini proves to be an all-round pig. Topping and bottoming, he has a great future. Rafaelo loves it anywhere: on the floor, on an oil-drum and his rose butt is so inviting. When you have seen Bob making this piglet Bastien crawl then you know why one scene is called “Applause.” But “Fire” is the most shocking scene: Bob is tied up and FF Angel sets his skin on fire. Literally! Extreme action definitely not for the weak at heart!"
Качество видео: DVDRip
Формат видео: AVI
Видео кодек: XviD
Аудио кодек: MP3
Видео: Xvid 640x480 25.00fps 1675kbps
Аудио: MPEG Audio Layer 3 48000Hz stereo 128kbps

MediaInfo

Общее
Полное имя : PrimePork - Extreme 1.avi
Формат : AVI
Формат/Информация : Audio Video Interleave
Размер файла : 1,27 Гбайт
Продолжительность : 1 ч. 40 м.
Общий поток : 1811 Кбит/сек
Программа кодирования : VirtualDubMod 1.5.4.1 (build 2178/release)
Библиотека кодирования : VirtualDubMod build 2178/release
Видео
Идентификатор : 0
Формат : MPEG-4 Visual
Профиль формата : Advanced [email protected]
Параметр BVOP формата : 1
Параметр QPel формата : Нет
Параметр GMC формата : Без точки перехода
Параметр матрицы формата : Выборочная
Идентификатор кодека : XVID
Идентификатор кодека/Подсказка : XviD
Продолжительность : 1 ч. 40 м.
Битрейт : 1675 Кбит/сек
Ширина : 640 пикселей
Высота : 480 пикселей
Соотношение сторон : 4:3
Частота кадров : 25,000 кадров/сек
Цветовое пространство : YUV
Субдискретизация насыщенности : 4:2:0
Битовая глубина : 8 бит
Тип развёртки : Прогрессивная
Метод сжатия : С потерями
Бит/(Пиксели*Кадры) : 0.218
Размер потока : 1,17 Гбайт (93%)
Библиотека кодирования : XviD 1.2.0SMP (UTC 2006-01-08)
Аудио
Идентификатор : 1
Формат : MPEG Audio
Версия формата : Version 1
Профиль формата : Layer 3
Режим : Joint stereo
Идентификатор кодека : 55
Идентификатор кодека/Подсказка : MP3
Продолжительность : 1 ч. 40 м.
Вид битрейта : Постоянный
Битрейт : 128 Кбит/сек
Каналы : 2 канала
Частота : 48,0 КГц
Метод сжатия : С потерями
Размер потока : 91,9 Мбайт (7%)
Выравнивание : Соединение по промежуткам
Продолжительность промежутка : 80 мс. (2,00 видеокадра)
Время предзагрузки промежутка : 504 мс.
Библиотека кодирования : LAME3.97b
Настройки программы : -m j -V 4 -q 2 -lowpass 17 -b 128

Скриншоты

[erzsebet.org].t3427707.torrent
Торрент: Зарегистрирован [ 2020-11-22 06:59 ]

Скачать .torrent

Скачать

13 KB

Статус: проверено
Скачан: 0 раз
Размер: 1.27 GB
Поблагодарили: 0  Спасибо
terms.php
[Профиль]  [ЛС] 
Показать сообщения:    
Ответить на тему

Текущее время: 27-Ноя 23:52

Часовой пояс: UTC + 3



Вы не можете начинать темы
Вы не можете отвечать на сообщения
Вы не можете редактировать свои сообщения
Вы не можете удалять свои сообщения
Вы не можете голосовать в опросах
Вы не можете прикреплять файлы к сообщениям
Вы можете скачивать файлы