Затерянные тайны Кордовы / Buried Secrets of Cordoba (Fernando Gonzalez-Sitges / Фернандо Гонсалес-Ситжес) [2019, Документальный, история, археология, исследования, HDTV 1080i]

Ответить на тему
Статистика раздачи
Размер:  2.38 GB   |    Зарегистрирован:  5 дней   |    Скачан:  0 раз
Сидов:  1   Личеров:  1  
 
 
Автор Сообщение

erzsebet ®

Стаж: 18 лет

Сообщений: 1005536

Откуда: Венгрия

Создавать темы 22-Ноя-2020 07:04  |  Сменить автора

[Цитировать] 

Затерянные тайны Кордовы / Buried Secrets of Cordoba
Год выпуска: 2019
Страна: Испания
Студия: Minotauro Comunication SL, National Geographic
Жанр: Документальный, история, археология, исследования
Продолжительность: 00:43:36
Перевод: Студийный (одноголосый закадровый)
Доп. инфо о переводе: Велес
Режиссер: Fernando Gonzalez-Sitges / Фернандо Гонсалес-Ситжес
Описание: В этой серии National Geographic последует за археологом и исследователем Фабио Амадором в его увлекательном путешествии по поиску ответов на загадки давно минувших дней, которые скрыты под современными улицами Кордовы и насчитывают около 2000 лет. Фабио присоединяется к археологам и историкам, использующим самые современные технологии, чтобы обнаружить и воссоздать забытое прошлое Кордовы.
Сэмпл: https://www.sendspace.com/file/yki01z
Тип релиза: HDTV 1080i
Контейнер: TS
Видео: 1920x1080 (16:9), 25 fps, AVC (H.264), [email protected], 7043 kbps, 0.136 bit/pixel
Аудио: Русский 48 kHz, MPEG Layer 2, 2 ch, ~192.00 kbps avg
Аудио 2: Английский 48 kHz, MPEG Layer 2, 2 ch, ~192.00 kbps avg

MediaInfo

Complete name : F:\Наладки\Затерянные тайны Кордовы.ts
Format : MPEG-TS
File size : 2.38 GiB
Duration : 43 min 36 s
Overall bit rate mode : Variable
Overall bit rate : 7 818 kb/s
Video
ID : 1146 (0x47A)
Menu ID : 134 (0x86)
Format : AVC
Format/Info : Advanced Video Codec
Format profile : [email protected]
Format settings : CABAC / 4 Ref Frames
Format settings, CABAC : Yes
Format settings, RefFrames : 4 frames
Format settings, GOP : M=4, N=24
Codec ID : 27
Duration : 43 min 36 s
Bit rate : 7 043 kb/s
Width : 1 920 pixels
Height : 1 080 pixels
Display aspect ratio : 16:9
Frame rate : 25.000 FPS
Standard : Component
Color space : YUV
Chroma subsampling : 4:2:0
Bit depth : 8 bits
Scan type : Interlaced
Scan type, store method : Separated fields
Scan order : Top Field First
Bits/(Pixel*Frame) : 0.136
Stream size : 2.15 GiB (90%)
Color range : Limited
Color primaries : BT.709
Transfer characteristics : BT.709
Matrix coefficients : BT.709
Audio #1
ID : 1147 (0x47B)
Menu ID : 134 (0x86)
Format : MPEG Audio
Format version : Version 1
Format profile : Layer 2
Codec ID : 3
Duration : 43 min 36 s
Bit rate mode : Constant
Bit rate : 192 kb/s
Channel(s) : 2 channels
Sampling rate : 48.0 kHz
Compression mode : Lossy
Delay relative to video : -80 ms
Stream size : 59.9 MiB (2%)
Language : Russian
Audio #2
ID : 1148 (0x47C)
Menu ID : 134 (0x86)
Format : MPEG Audio
Format version : Version 1
Format profile : Layer 2
Codec ID : 3
Duration : 43 min 36 s
Bit rate mode : Constant
Bit rate : 192 kb/s
Channel(s) : 2 channels
Sampling rate : 48.0 kHz
Compression mode : Lossy
Delay relative to video : -80 ms
Stream size : 59.9 MiB (2%)
Language : English
[erzsebet.org].t3427715.torrent
Торрент: Зарегистрирован [ 2020-11-22 07:04 ]

Скачать .torrent

Скачать

12 KB

Статус: проверено
Скачан: 0 раз
Размер: 2.38 GB
Поблагодарили: 0  Спасибо
terms.php
[Профиль]  [ЛС] 
Показать сообщения:    
Ответить на тему

Текущее время: 27-Ноя 23:36

Часовой пояс: UTC + 3



Вы не можете начинать темы
Вы не можете отвечать на сообщения
Вы не можете редактировать свои сообщения
Вы не можете удалять свои сообщения
Вы не можете голосовать в опросах
Вы не можете прикреплять файлы к сообщениям
Вы можете скачивать файлы