[ShemaleStrokers.com] TS Teresa (Is A Hairy Girl Who Loves To Stroke!) [07.05.2012 г., Shemale, Solo, Masturbation, SiteRip]

Ответить на тему
Статистика раздачи
Размер:  209 MB   |    Зарегистрирован:  5 дней   |    Скачан:  0 раз
Сидов:  1   Личеров:  1  
 
 
Автор Сообщение

erzsebet ®

Стаж: 18 лет

Сообщений: 1005417

Откуда: Венгрия

Создавать темы 22-Ноя-2020 07:06  |  Сменить автора

[Цитировать] 

[ShemaleStrokers.com]
TS Teresa
Is A Hairy Girl Who Loves To Stroke!
[07.05.2012 г.]


Год производства: 2012 г.
Жанр: Shemale, Solo, Masturbation
Продолжительность: 00:17:23
Студия: ShemaleStrokers.com
В ролях: TS Teresa
Качество видео: SiteRip
Формат видео: WMV
Видео кодек: Windows Media
Аудио кодек: WMA
Видео: 29.970 fps, 1 500 Kbps, 960x540
Аудио: 128 kbps, 44 kHz, stereo CBR
Описание:
Hi, I'm Teresa, a New York girl who is quiet but nasty.
I've got a nice uncut cock and if you like hairy girls,
I've got a lot of pubic hair. Watch me stroke myself off.

Доп. информация:

General
Complete name : shemale-teresa-scene.wmv
Format : Windows Media
File size : 209 MiB
Duration : 17mn 23s
Overall bit rate : 1 682 Kbps
Maximum Overall bit rate : 1 646 Kbps
Encoded date : UTC 2012-05-04 22:11:56.000
Video
ID : 1
Format : VC-1
Format profile : Main
Codec ID : WMV3
Codec ID/Info : Windows Media Video 9
Codec ID/Hint : WMV3
Description of the codec : Windows Media Video 9 - 2-pass VBR
Duration : 17mn 23s
Bit rate : 1 500 Kbps
Width : 960 pixels
Height : 540 pixels
Display aspect ratio : 16:9
Frame rate : 29.970 fps
Bit depth : 8 bits
Scan type : Progressive
Compression mode : Lossy
Bits/(Pixel*Frame) : 0.097
Stream size : 187 MiB (89%)
Audio
ID : 2
Format : WMA
Format version : Version 2
Codec ID : 161
Codec ID/Info : Windows Media Audio
Description of the codec : Windows Media Audio 9 - 128 kbps, 44 kHz, stereo CBR
Duration : 17mn 23s
Bit rate : 128 Kbps
Channel(s) : 2 channels
Sampling rate : 44.1 KHz
Bit depth : 16 bits
Stream size : 15.9 MiB (8%)

Скринлист

[erzsebet.org].t3427723.torrent
Торрент: Зарегистрирован [ 2020-11-22 07:06 ]

Скачать .torrent

Скачать

17 KB

Статус: проверено
Скачан: 0 раз
Размер: 209 MB
Поблагодарили: 0  Спасибо
terms.php
[Профиль]  [ЛС] 
Показать сообщения:    
Ответить на тему

Текущее время: 27-Ноя 22:27

Часовой пояс: UTC + 3



Вы не можете начинать темы
Вы не можете отвечать на сообщения
Вы не можете редактировать свои сообщения
Вы не можете удалять свои сообщения
Вы не можете голосовать в опросах
Вы не можете прикреплять файлы к сообщениям
Вы можете скачивать файлы