<

(Doom Metal) [CD] Kypck - 3epo (Zero) - 2016, FLAC (image+.cue), lossless

Ответить на тему
Статистика раздачи
Размер:  437 MB   |    Зарегистрирован:  2 месяца 8 дней   |    Скачан:  1 раз

Полного источника не было: 2 месяца 7 дней

 
 
 
Автор Сообщение

erzsebet ®

Стаж: 14 лет

Сообщений: 38987

Откуда: Hungary

Создавать темы 15-Мар-2019 02:26  |  Сменить автора

[Цитировать] 

Kypck / 3epo (Zero)
Жанр: Doom Metal
Носитель: CD
Год издания: 2016
Издатель (лейбл): Ranka Kustannus
Номер по каталогу: RAN431656
Страна исполнителя (группы): Finland
Аудиокодек: FLAC (*.flac)
Тип рипа: image+.cue
Битрейт аудио: lossless
Продолжительность: 01:01:04
Наличие сканов в содержимом раздачи: да
Треклист:
01. Я свободен (I Am Free)
02. 2017
03. Мне отмщение (Vengeance Is Mine)
04. Прогулка по Неве (Stroll by the Banks of Neva)
05. На небе вижу я лицо (I See a Face in the Sky)
06. Моя жизнь (My Life)
07. Последний тур (The Last Tour)
08. Русофоб (Russophobe)
09. Байкал (Baikal)
10. Белая смерть (White Death)

Лог создания рипа

Exact Audio Copy V1.0 beta 3 from 29. August 2011
EAC extraction logfile from 27. September 2016, 16:49
KYPCK / Zero
Used drive : HL-DT-STDVD-RAM GH15L Adapter: 4 ID: 0
Read mode : Secure
Utilize accurate stream : Yes
Defeat audio cache : Yes
Make use of C2 pointers : No
Read offset correction : 667
Overread into Lead-In and Lead-Out : No
Fill up missing offset samples with silence : Yes
Delete leading and trailing silent blocks : No
Null samples used in CRC calculations : Yes
Used interface : Native Win32 interface for Win NT & 2000
Used output format : User Defined Encoder
Selected bitrate : 1024 kBit/s
Quality : High
Add ID3 tag : Yes
Command line compressor : C:\Program Files (x86)\Exact Audio Copy\Flac\flac.exe
Additional command line options : -6 -V -T "ARTIST=%artist%" -T "TITLE=%title%" -T "ALBUM=%albumtitle%" -T "DATE=%year%" -T "TRACKNUMBER=%tracknr%" -T "GENRE=%genre%" -T "COMMENT=%comment%" -T "BAND=%albuminterpret%" -T "ALBUMARTIST=%albuminterpret%" -T "COMPOSER=%composer%" %haslyrics%--tag-from-file=LYRICS="%lyricsfile%"%haslyrics% -T "DISCNUMBER=%cdnumber%" -T "TOTALDISCS=%totalcds%" -T "TOTALTRACKS=%numtracks%" %hascover%--picture="%coverfile%"%hascover% %source% -o %dest%
TOC of the extracted CD
Track | Start | Length | Start sector | End sector
---------------------------------------------------------
1 | 0:00.00 | 5:17.13 | 0 | 23787
2 | 5:17.13 | 5:12.40 | 23788 | 47227
3 | 10:29.53 | 5:21.07 | 47228 | 71309
4 | 15:50.60 | 4:44.11 | 71310 | 92620
5 | 20:34.71 | 11:01.74 | 92621 | 142269
6 | 31:36.70 | 6:02.46 | 142270 | 169465
7 | 37:39.41 | 5:34.04 | 169466 | 194519
8 | 43:13.45 | 5:01.56 | 194520 | 217150
9 | 48:15.26 | 5:09.01 | 217151 | 240326
10 | 53:24.27 | 7:39.61 | 240327 | 274812
Range status and errors
Selected range
Filename C:\KYPCK [2016] [CD] Zero\KYPCK - Zero.wav
Peak level 100.0 %
Extraction speed 6.3 X
Range quality 100.0 %
Test CRC 9819EEDA
Copy CRC 9819EEDA
Copy OK
No errors occurred
AccurateRip summary
Track 1 not present in database
Track 2 not present in database
Track 3 not present in database
Track 4 not present in database
Track 5 not present in database
Track 6 not present in database
Track 7 not present in database
Track 8 not present in database
Track 9 not present in database
Track 10 not present in database
None of the tracks are present in the AccurateRip database
End of status report
[erzsebet.org].t35034.torrent 
Торрент: Зарегистрирован [ 2019-03-15 02:26 ]

Скачать .torrent

Скачать

18 KB

Статус: проверено
Скачан: 1 раз
Размер: 437 MB
Поблагодарили: 0  Спасибо
terms.php
[Профиль]  [ЛС] 
Показать сообщения:    
Ответить на тему

Текущее время: 23-Май 16:57

Часовой пояс: UTC + 3



Вы не можете начинать темы
Вы не можете отвечать на сообщения
Вы не можете редактировать свои сообщения
Вы не можете удалять свои сообщения
Вы не можете голосовать в опросах
Вы не можете прикреплять файлы к сообщениям
Вы можете скачивать файлы