<

(Psychobilly) The Meteors - 2 альбома (Madman Roll / Bastard Sons Of A Rock 'n' Roll Devil) - 1991 / 1997, FLAC (image+.cue) lossless

Ответить на тему
Статистика раздачи
Размер:  574 MB   |    Зарегистрирован:  2 месяца 8 дней   |    Скачан:  1 раз

Полного источника не было: 2 месяца 7 дней

 
 
 
Автор Сообщение

erzsebet ®

Стаж: 14 лет

Сообщений: 38987

Откуда: Hungary

Создавать темы 15-Мар-2019 02:33  |  Сменить автора

[Цитировать] 

The Meteors / 2 альбома
Жанр: Psychobilly
Носитель: CD
Год издания диска: 1991 / 1997
Страна исполнителя (группы): UK
Аудио кодек: FLAC (*.flac)
Тип рипа: image+.cue
Битрейт аудио: lossless
Продолжительность: 1:22:41
Наличие сканов в содержимом раздачи: да

1991 - Madman Roll

Страна-производитель диска: Netherlands
Издатель (лейбл): Sonovabitch Records
Номер по каталогу: ROTT 90022
Продолжительность: 0:40:04

Треклист:
01 Madman Roll
02 Queen of the Slug People
03 Bertha Lou
04 Theme From 'The Hypnotist'
05 You Can't Touch Me
06 Paint It Black
07 You're Mine
08 A Very Handy Man (Indeed)
09 Running Round
10 Simply Ravishing
11 Chainsaw Boogie

Лог создания рипа

Exact Audio Copy V1.3 from 2. September 2016
EAC extraction logfile from 18. September 2018, 10:20
The Meteors / Madman Roll
Used drive : PIONEER DVD-RW DVR-221L Adapter: 1 ID: 1
Read mode : Secure
Utilize accurate stream : Yes
Defeat audio cache : Yes
Make use of C2 pointers : No
Read offset correction : 6
Overread into Lead-In and Lead-Out : No
Fill up missing offset samples with silence : Yes
Delete leading and trailing silent blocks : No
Null samples used in CRC calculations : Yes
Used interface : Native Win32 interface for Win NT & 2000
Used output format : User Defined Encoder
Selected bitrate : 1024 kBit/s
Quality : High
Add ID3 tag : No
Command line compressor : C:\Program Files (x86)\Exact Audio Copy\Flac\flac.exe
Additional command line options : -V -8 -T "Date=%year%" -T "Genre=%genre%" %source%
TOC of the extracted CD
Track | Start | Length | Start sector | End sector
---------------------------------------------------------
1 | 0:00.33 | 4:01.02 | 33 | 18109
2 | 4:01.35 | 4:46.08 | 18110 | 39567
3 | 8:47.43 | 2:56.65 | 39568 | 52832
4 | 11:44.33 | 4:05.22 | 52833 | 71229
5 | 15:49.55 | 3:23.33 | 71230 | 86487
6 | 19:13.13 | 2:21.72 | 86488 | 97134
7 | 21:35.10 | 3:09.10 | 97135 | 111319
8 | 24:44.20 | 3:54.40 | 111320 | 128909
9 | 28:38.60 | 3:13.68 | 128910 | 143452
10 | 31:52.53 | 4:03.15 | 143453 | 161692
11 | 35:55.68 | 4:08.12 | 161693 | 180304
Range status and errors
Selected range
Filename D:\Mutineer\The Meteors - Madman Roll\The Meteors - Madman Roll.wav
Peak level 100.0 %
Extraction speed 4.0 X
Range quality 100.0 %
Test CRC EDC0E069
Copy CRC EDC0E069
Copy OK
No errors occurred
AccurateRip summary
Track 1 accurately ripped (confidence 2) [B2184500] (AR v2)
Track 2 accurately ripped (confidence 2) [4AF5F50F] (AR v2)
Track 3 accurately ripped (confidence 2) [63A8FA27] (AR v2)
Track 4 accurately ripped (confidence 2) [69F16103] (AR v2)
Track 5 accurately ripped (confidence 2) [B2E3DDAE] (AR v2)
Track 6 accurately ripped (confidence 2) [5D5E9024] (AR v2)
Track 7 accurately ripped (confidence 2) [58E3C690] (AR v2)
Track 8 accurately ripped (confidence 2) [98972541] (AR v2)
Track 9 accurately ripped (confidence 2) [61C6261B] (AR v2)
Track 10 accurately ripped (confidence 2) [94B21E9F] (AR v2)
Track 11 accurately ripped (confidence 2) [726833B1] (AR v2)
All tracks accurately ripped
End of status report
==== Log checksum 0A513BF27D9C6E02F033A93BD7C556DB97E5B9C026CE264E1D106A35266E45D7 ====

1997 - Bastard Sons Of A Rock 'n' Roll Devil

Страна-производитель диска: Germany
Издатель (лейбл): Hellraiser Records/Knockout Records
Номер по каталогу: HRCD 001
Продолжительность: 0:42:37

Треклист:
01 Halloween (Tribute)
02 Straight Down To Hell
03 You Scare Me (Not)
04 Nightmare On Elche (Alicante Breakdown)
05 Kattle Slut
06 5 For Her, 3 For Him
07 Body Count (Punish The Innocent)
08 Load Up
09 Kat Killer
10 Be My Slave
11 Psychobilly Stomp (The Real McCoy)
12 Slow Down You Grave Robbing Bastard

Лог создания рипа

Exact Audio Copy V1.3 from 2. September 2016
EAC extraction logfile from 18. September 2018, 10:57
The Meteors / Bastard Sons Of A Rock 'n' Roll Devil
Used drive : PIONEER DVD-RW DVR-221L Adapter: 1 ID: 1
Read mode : Secure
Utilize accurate stream : Yes
Defeat audio cache : Yes
Make use of C2 pointers : No
Read offset correction : 6
Overread into Lead-In and Lead-Out : No
Fill up missing offset samples with silence : Yes
Delete leading and trailing silent blocks : No
Null samples used in CRC calculations : Yes
Used interface : Native Win32 interface for Win NT & 2000
Used output format : User Defined Encoder
Selected bitrate : 1024 kBit/s
Quality : High
Add ID3 tag : No
Command line compressor : C:\Program Files (x86)\Exact Audio Copy\Flac\flac.exe
Additional command line options : -V -8 -T "Date=%year%" -T "Genre=%genre%" %source%
TOC of the extracted CD
Track | Start | Length | Start sector | End sector
---------------------------------------------------------
1 | 0:00.00 | 2:11.05 | 0 | 9829
2 | 2:11.05 | 3:47.72 | 9830 | 26926
3 | 5:59.02 | 3:29.13 | 26927 | 42614
4 | 9:28.15 | 3:45.70 | 42615 | 59559
5 | 13:14.10 | 3:17.22 | 59560 | 74356
6 | 16:31.32 | 3:53.28 | 74357 | 91859
7 | 20:24.60 | 3:16.69 | 91860 | 106628
8 | 23:41.54 | 3:35.31 | 106629 | 122784
9 | 27:17.10 | 2:57.37 | 122785 | 136096
10 | 30:14.47 | 4:24.68 | 136097 | 155964
11 | 34:39.40 | 4:18.02 | 155965 | 175316
12 | 38:57.42 | 3:39.63 | 175317 | 191804
Range status and errors
Selected range
Filename D:\Mutineer\The Meteors - Bastard Sons Of A Rock 'n' Roll Devil\The Meteors - Bastard Sons Of A Rock 'n' Roll Devil.wav
Peak level 99.9 %
Extraction speed 7.0 X
Range quality 99.9 %
Test CRC A7CB85EB
Copy CRC A7CB85EB
Copy OK
No errors occurred
AccurateRip summary
Track 1 accurately ripped (confidence 3) [E861F8C3] (AR v2)
Track 2 accurately ripped (confidence 3) [A6FFFC1C] (AR v2)
Track 3 accurately ripped (confidence 3) [991A9870] (AR v2)
Track 4 accurately ripped (confidence 3) [49B75043] (AR v2)
Track 5 accurately ripped (confidence 3) [EE2221A7] (AR v2)
Track 6 accurately ripped (confidence 3) [AECEC912] (AR v2)
Track 7 accurately ripped (confidence 3) [A9787B31] (AR v2)
Track 8 accurately ripped (confidence 3) [C5C31415] (AR v2)
Track 9 accurately ripped (confidence 3) [B9CEE948] (AR v2)
Track 10 accurately ripped (confidence 3) [C5788EBA] (AR v2)
Track 11 accurately ripped (confidence 3) [5367569B] (AR v2)
Track 12 accurately ripped (confidence 3) [5B673591] (AR v2)
All tracks accurately ripped
End of status report
==== Log checksum 7D604AF23CFE0504DB52B20338B5707B7D640AE9BD179E6B0DB85B9186B85FFB ====
[erzsebet.org].t35035.torrent 
Торрент: Зарегистрирован [ 2019-03-15 02:33 ]

Скачать .torrent

Скачать

13 KB

Статус: проверено
Скачан: 1 раз
Размер: 574 MB
Поблагодарили: 0  Спасибо
terms.php
[Профиль]  [ЛС] 
Показать сообщения:    
Ответить на тему

Текущее время: 23-Май 16:55

Часовой пояс: UTC + 3



Вы не можете начинать темы
Вы не можете отвечать на сообщения
Вы не можете редактировать свои сообщения
Вы не можете удалять свои сообщения
Вы не можете голосовать в опросах
Вы не можете прикреплять файлы к сообщениям
Вы можете скачивать файлы