<

(Psychobilly) The Meteors - Wreckin' Crew - 1983 {2003 Remaster}, FLAC (tracks+.cue), lossless

Ответить на тему
Статистика раздачи
Размер:  347 MB   |    Зарегистрирован:  2 месяца 8 дней   |    Скачан:  1 раз

Полного источника не было: 2 месяца 7 дней

 
 
 
Автор Сообщение

erzsebet ®

Стаж: 14 лет

Сообщений: 38987

Откуда: Hungary

Создавать темы 15-Мар-2019 02:45  |  Сменить автора

[Цитировать] 

The Meteors - Wreckin' Crew
Жанр: Psychobilly
Год выпуска диска: 2003
Производитель диска: EU
Лейбл: Castle Music
Номер по каталогу: CMRCD 788
Аудио кодек: FLAC
Тип рипа: tracks+.cue
Битрейт аудио: lossless
Продолжительность: 50:33
Трэклист:
01 - Insane
02 - I Ain't Ready
03 - Johnny Remember Me
04 - I Don't Worry About It
05 - Axe Attack
06 - Zombie Noise
07 - Rattle Snakin' Daddy
08 - When a Stranger Calls
09 - Phantom of the Opera
10 - Blue Sunshine
11 - Wreckin' Crew
12 - Sick Things
13 - Wild Thing
14 - I'm Not Mad/Get Off My Cloud
Bonus tracks:
15 - Mutant Rock
16 - Hills Have Eyes
17 - Fear of the Dark
18 - Scream of the Mutants
Доп. информация:
Ремастирован.
Состав:
P. Paul Fenech - vocals, guitar
Mick White - bass
Steve Meadham - drums
Helen Knight - girl's voice (3,8)
Russell Jones - vocals (5,9), additional vocals (2,7,13,14)

Отчёт EAC

Exact Audio Copy V0.99 prebeta 5 from 4. May 2009
EAC extraction logfile from 10. February 2010, 3:30
The Meteors / Wreckin' Crew
Used drive : Optiarc DVD RW AD-7203A Adapter: 4 ID: 0
Read mode : Secure
Utilize accurate stream : Yes
Defeat audio cache : Yes
Make use of C2 pointers : No
Read offset correction : 48
Overread into Lead-In and Lead-Out : No
Fill up missing offset samples with silence : Yes
Delete leading and trailing silent blocks : No
Null samples used in CRC calculations : Yes
Used interface : Native Win32 interface for Win NT & 2000
Gap handling : Appended to previous track
Used output format : User Defined Encoder
Selected bitrate : 768 kBit/s
Quality : High
Add ID3 tag : No
Command line compressor : C:\Program Files\Exact Audio Copy\Flac\flac.exe
Additional command line options : -8 -V -T "ARTIST=%a" -T "TITLE=%t" -T "ALBUM=%g" -T "DATE=%y" -T "TRACKNUMBER=%n" -T "GENRE=%m" -T "COMMENT=EAC FLAC -8" %s
TOC of the extracted CD
Track | Start | Length | Start sector | End sector
---------------------------------------------------------
1 | 0:00.00 | 3:48.69 | 0 | 17168
2 | 3:48.69 | 2:32.27 | 17169 | 28595
3 | 6:21.21 | 3:29.58 | 28596 | 44328
4 | 9:51.04 | 3:22.43 | 44329 | 59521
5 | 13:13.47 | 2:39.54 | 59522 | 71500
6 | 15:53.26 | 1:51.03 | 71501 | 79828
7 | 17:44.29 | 1:53.69 | 79829 | 88372
8 | 19:38.23 | 2:55.19 | 88373 | 101516
9 | 22:33.42 | 4:01.33 | 101517 | 119624
10 | 26:35.00 | 2:30.39 | 119625 | 130913
11 | 29:05.39 | 2:28.59 | 130914 | 142072
12 | 31:34.23 | 4:00.43 | 142073 | 160115
13 | 35:34.66 | 1:47.13 | 160116 | 168153
14 | 37:22.04 | 2:16.23 | 168154 | 178376
15 | 39:38.27 | 2:21.45 | 178377 | 188996
16 | 41:59.72 | 3:37.53 | 188997 | 205324
17 | 45:37.50 | 2:37.45 | 205325 | 217144
18 | 48:15.20 | 2:27.66 | 217145 | 228235
Track 1
Filename C:\Fet's Lossless Rips\01 - The Meteors - Insane.wav
Pre-gap length 0:00:02.00
Peak level 99.7 %
Track quality 100.0 %
Test CRC 292E9AD6
Copy CRC 292E9AD6
Track not present in AccurateRip database
Copy OK
Track 2
Filename C:\Fet's Lossless Rips\02 - The Meteors - I Ain't Ready.wav
Peak level 99.7 %
Track quality 100.0 %
Test CRC 2B7263EA
Copy CRC 2B7263EA
Track not present in AccurateRip database
Copy OK
Track 3
Filename C:\Fet's Lossless Rips\03 - The Meteors - Johnny Remember Me.wav
Peak level 99.7 %
Track quality 100.0 %
Test CRC 35907C5B
Copy CRC 35907C5B
Track not present in AccurateRip database
Copy OK
Track 4
Filename C:\Fet's Lossless Rips\04 - The Meteors - I Don't Worry About It.wav
Peak level 99.7 %
Track quality 99.9 %
Test CRC 0E2D9213
Copy CRC 0E2D9213
Track not present in AccurateRip database
Copy OK
Track 5
Filename C:\Fet's Lossless Rips\05 - The Meteors - Axe Attack.wav
Peak level 97.9 %
Track quality 99.9 %
Test CRC 7FFAB66D
Copy CRC 7FFAB66D
Track not present in AccurateRip database
Copy OK
Track 6
Filename C:\Fet's Lossless Rips\06 - The Meteors - Zombie Noise.wav
Peak level 99.7 %
Track quality 100.0 %
Test CRC F2A6F904
Copy CRC F2A6F904
Track not present in AccurateRip database
Copy OK
Track 7
Filename C:\Fet's Lossless Rips\07 - The Meteors - Rattle Snakin' Daddy.wav
Peak level 99.7 %
Track quality 100.0 %
Test CRC 775A9FEC
Copy CRC 775A9FEC
Track not present in AccurateRip database
Copy OK
Track 8
Filename C:\Fet's Lossless Rips\08 - The Meteors - When a Stranger Calls.wav
Peak level 99.7 %
Track quality 100.0 %
Test CRC 0F6C0696
Copy CRC 0F6C0696
Track not present in AccurateRip database
Copy OK
Track 9
Filename C:\Fet's Lossless Rips\09 - The Meteors - Phantom of the Opera.wav
Peak level 97.9 %
Track quality 100.0 %
Test CRC FFF20AFA
Copy CRC FFF20AFA
Track not present in AccurateRip database
Copy OK
Track 10
Filename C:\Fet's Lossless Rips\10 - The Meteors - Blue Sunshine.wav
Peak level 99.7 %
Track quality 100.0 %
Test CRC 7B02FAB1
Copy CRC 7B02FAB1
Track not present in AccurateRip database
Copy OK
Track 11
Filename C:\Fet's Lossless Rips\11 - The Meteors - Wreckin' Crew.wav
Peak level 93.1 %
Track quality 100.0 %
Test CRC E580741C
Copy CRC E580741C
Track not present in AccurateRip database
Copy OK
Track 12
Filename C:\Fet's Lossless Rips\12 - The Meteors - Sick Things.wav
Peak level 99.7 %
Track quality 100.0 %
Test CRC EE7FC07F
Copy CRC EE7FC07F
Track not present in AccurateRip database
Copy OK
Track 13
Filename C:\Fet's Lossless Rips\13 - The Meteors - Wild Thing.wav
Peak level 99.7 %
Track quality 100.0 %
Test CRC FC0384C5
Copy CRC FC0384C5
Track not present in AccurateRip database
Copy OK
Track 14
Filename C:\Fet's Lossless Rips\14 - The Meteors - I'm Not Mad,Get Off My Cloud.wav
Peak level 99.7 %
Track quality 100.0 %
Test CRC 312FE72F
Copy CRC 312FE72F
Track not present in AccurateRip database
Copy OK
Track 15
Filename C:\Fet's Lossless Rips\15 - The Meteors - Mutant Rock.wav
Peak level 99.7 %
Track quality 100.0 %
Test CRC 097540F8
Copy CRC 097540F8
Track not present in AccurateRip database
Copy OK
Track 16
Filename C:\Fet's Lossless Rips\16 - The Meteors - The Hills Have Eyes.wav
Peak level 99.7 %
Track quality 100.0 %
Test CRC EEB998E7
Copy CRC EEB998E7
Track not present in AccurateRip database
Copy OK
Track 17
Filename C:\Fet's Lossless Rips\17 - The Meteors - Fear of the Dark.wav
Peak level 99.7 %
Track quality 100.0 %
Test CRC D87001FF
Copy CRC D87001FF
Track not present in AccurateRip database
Copy OK
Track 18
Filename C:\Fet's Lossless Rips\18 - The Meteors - Scream of the Mutants.wav
Peak level 99.7 %
Track quality 100.0 %
Test CRC 701FB424
Copy CRC 701FB424
Track not present in AccurateRip database
Copy OK
None of the tracks are present in the AccurateRip database
No errors occurred
End of status report

Audiochecker

AUDIOCHECKER v2.0 beta (build 457) - by Dester - opdester@freemail.hu
~~~~~~~~~~~~~~~~~~~~~~~~~~~~~~~~~~
-=== DO NOT EDIT THIS FILE! ===-
Path: ...\The Meteors - 1983 - Wreckin' Crew [CMRCD 788]
01 -=- 01 - The Meteors - Insane.flac -=- CDDA (100%)
02 -=- 02 - The Meteors - I Ain't Ready.flac -=- CDDA (100%)
03 -=- 03 - The Meteors - Johnny Remember Me.flac -=- CDDA (100%)
04 -=- 04 - The Meteors - I Don't Worry About It.flac -=- CDDA (100%)
05 -=- 05 - The Meteors - Axe Attack.flac -=- CDDA (99%)
06 -=- 06 - The Meteors - Zombie Noise.flac -=- CDDA (100%)
07 -=- 07 - The Meteors - Rattle Snakin' Daddy.flac -=- CDDA (100%)
08 -=- 08 - The Meteors - When a Stranger Calls.flac -=- CDDA (100%)
09 -=- 09 - The Meteors - Phantom of the Opera.flac -=- CDDA (100%)
10 -=- 10 - The Meteors - Blue Sunshine.flac -=- CDDA (100%)
11 -=- 11 - The Meteors - Wreckin' Crew.flac -=- CDDA (100%)
12 -=- 12 - The Meteors - Sick Things.flac -=- CDDA (100%)
13 -=- 13 - The Meteors - Wild Thing.flac -=- CDDA (100%)
14 -=- 14 - The Meteors - I'm Not Mad,Get Off My Cloud.flac -=- CDDA (100%)
15 -=- 15 - The Meteors - Mutant Rock.flac -=- CDDA (100%)
16 -=- 16 - The Meteors - The Hills Have Eyes.flac -=- CDDA (100%)
17 -=- 17 - The Meteors - Fear of the Dark.flac -=- CDDA (100%)
18 -=- 18 - The Meteors - Scream of the Mutants.flac -=- CDDA (100%)
Summary 99,94% CDDA
112265460

.cue

REM GENRE Psychobilly
REM DATE 1983
REM DISCID 130BE312
REM COMMENT "ExactAudioCopy v0.99pb5"
PERFORMER "The Meteors"
TITLE "Wreckin' Crew"
FILE "01 - The Meteors - Insane.wav" WAVE
TRACK 01 AUDIO
TITLE "Insane"
PERFORMER "The Meteors"
INDEX 01 00:00:00
FILE "02 - The Meteors - I Ain't Ready.wav" WAVE
TRACK 02 AUDIO
TITLE "I Ain't Ready"
PERFORMER "The Meteors"
INDEX 01 00:00:00
FILE "03 - The Meteors - Johnny Remember Me.wav" WAVE
TRACK 03 AUDIO
TITLE "Johnny Remember Me "
PERFORMER "The Meteors"
INDEX 01 00:00:00
FILE "04 - The Meteors - I Don't Worry About It.wav" WAVE
TRACK 04 AUDIO
TITLE "I Don't Worry About It"
PERFORMER "The Meteors"
INDEX 01 00:00:00
FILE "05 - The Meteors - Axe Attack.wav" WAVE
TRACK 05 AUDIO
TITLE "Axe Attack"
PERFORMER "The Meteors"
INDEX 01 00:00:00
FILE "06 - The Meteors - Zombie Noise.wav" WAVE
TRACK 06 AUDIO
TITLE "Zombie Noise"
PERFORMER "The Meteors"
INDEX 01 00:00:00
FILE "07 - The Meteors - Rattle Snakin' Daddy.wav" WAVE
TRACK 07 AUDIO
TITLE "Rattle Snakin' Daddy"
PERFORMER "The Meteors"
INDEX 01 00:00:00
FILE "08 - The Meteors - When a Stranger Calls.wav" WAVE
TRACK 08 AUDIO
TITLE "When a Stranger Calls"
PERFORMER "The Meteors"
INDEX 01 00:00:00
FILE "09 - The Meteors - Phantom of the Opera.wav" WAVE
TRACK 09 AUDIO
TITLE "Phantom of the Opera"
PERFORMER "The Meteors"
INDEX 01 00:00:00
FILE "10 - The Meteors - Blue Sunshine.wav" WAVE
TRACK 10 AUDIO
TITLE "Blue Sunshine"
PERFORMER "The Meteors"
INDEX 01 00:00:00
FILE "11 - The Meteors - Wreckin' Crew.wav" WAVE
TRACK 11 AUDIO
TITLE "Wreckin' Crew"
PERFORMER "The Meteors"
INDEX 01 00:00:00
FILE "12 - The Meteors - Sick Things.wav" WAVE
TRACK 12 AUDIO
TITLE "Sick Things"
PERFORMER "The Meteors"
INDEX 01 00:00:00
FILE "13 - The Meteors - Wild Thing.wav" WAVE
TRACK 13 AUDIO
TITLE "Wild Thing"
PERFORMER "The Meteors"
INDEX 01 00:00:00
FILE "14 - The Meteors - I'm Not Mad,Get Off My Cloud.wav" WAVE
TRACK 14 AUDIO
TITLE "I'm Not Mad/Get Off My Cloud"
PERFORMER "The Meteors"
INDEX 01 00:00:00
FILE "15 - The Meteors - Mutant Rock.wav" WAVE
TRACK 15 AUDIO
TITLE "Mutant Rock"
PERFORMER "The Meteors"
INDEX 01 00:00:00
FILE "16 - The Meteors - The Hills Have Eyes.wav" WAVE
TRACK 16 AUDIO
TITLE "The Hills Have Eyes"
PERFORMER "The Meteors"
INDEX 01 00:00:00
FILE "17 - The Meteors - Fear of the Dark.wav" WAVE
TRACK 17 AUDIO
TITLE "Fear of the Dark"
PERFORMER "The Meteors"
INDEX 01 00:00:00
FILE "18 - The Meteors - Scream of the Mutants.wav" WAVE
TRACK 18 AUDIO
TITLE "Scream of the Mutants"
PERFORMER "The Meteors"
INDEX 01 00:00:00
[erzsebet.org].t35037.torrent 
Торрент: Зарегистрирован [ 2019-03-15 02:45 ]

Скачать .torrent

Скачать

16 KB

Статус: проверено
Скачан: 1 раз
Размер: 347 MB
Поблагодарили: 0  Спасибо
terms.php
[Профиль]  [ЛС] 
Показать сообщения:    
Ответить на тему

Текущее время: 23-Май 16:55

Часовой пояс: UTC + 3



Вы не можете начинать темы
Вы не можете отвечать на сообщения
Вы не можете редактировать свои сообщения
Вы не можете удалять свои сообщения
Вы не можете голосовать в опросах
Вы не можете прикреплять файлы к сообщениям
Вы можете скачивать файлы