<

(Psychobilly) [CD] The Meteors - Psychobilly Rules!: The Collection - 2013, FLAC (image+.cue), lossless

Ответить на тему
Статистика раздачи
Размер:  500 MB   |    Зарегистрирован:  2 месяца 8 дней   |    Скачан:  1 раз

Полного источника не было: 2 месяца 7 дней

 
 
 
Автор Сообщение

erzsebet ®

Стаж: 14 лет

Сообщений: 38987

Откуда: Hungary

Создавать темы 15-Мар-2019 02:48  |  Сменить автора

[Цитировать] 

The Meteors / Psychobilly Rules!: The Collection
Жанр: Psychobilly
Носитель: CD
Страна-производитель диска (релиза): EU
Год издания: 2013
Издатель (лейбл): Pressplay
Номер по каталогу: PRESS7CD
Страна исполнителя (группы): UK
Аудиокодек: FLAC (*.flac)
Тип рипа: image+.cue
Битрейт аудио: lossless
Продолжительность: 01:04:12
Наличие сканов в содержимом раздачи: да

Треклист:
01. Wrecking Crew
02. Johnny Remember Me
03. Michael Myers
04. Little Red Riding Hood
05. I'm Just A Dog
06. These Boots Are Made For Walking
07. Fire, Fire
08. Surf City
09. Don't Touch The Bang Bang Fruit
10. Go Buddy Go
11. The Crazed
12. Wild Thing
13. Meteors Vs The World
14. Rawhide
15. Stampede
16. Surfin' On The Planet Zorch
17. Please Don't Touch
18. Sewertime Blues
19. Psycho Down
20. Voodoo Rhythm

Лог создания рипа

Exact Audio Copy V1.0 beta 3 from 29. August 2011
EAC extraction logfile from 18. April 2015, 14:17
The Meteors / Psychobilly Rules!: The Collection
Used drive : HL-DT-STDVDRAM GH22NS40 Adapter: 4 ID: 0
Read mode : Secure
Utilize accurate stream : Yes
Defeat audio cache : Yes
Make use of C2 pointers : No
Read offset correction : 667
Overread into Lead-In and Lead-Out : No
Fill up missing offset samples with silence : Yes
Delete leading and trailing silent blocks : No
Null samples used in CRC calculations : Yes
Used interface : Native Win32 interface for Win NT & 2000
Used output format : User Defined Encoder
Selected bitrate : 1024 kBit/s
Quality : High
Add ID3 tag : Yes
Command line compressor : C:\Program Files\FLAC\flac.exe
Additional command line options : -V -8 -T "Date=%year%" -T "Genre=%genre%" %source%
TOC of the extracted CD
Track | Start | Length | Start sector | End sector
---------------------------------------------------------
1 | 0:00.00 | 2:30.59 | 0 | 11308
2 | 2:30.59 | 3:09.57 | 11309 | 25540
3 | 5:40.41 | 4:06.38 | 25541 | 44028
4 | 9:47.04 | 4:10.59 | 44029 | 62837
5 | 13:57.63 | 3:53.49 | 62838 | 80361
6 | 17:51.37 | 2:23.48 | 80362 | 91134
7 | 20:15.10 | 3:19.64 | 91135 | 106123
8 | 23:34.74 | 2:55.18 | 106124 | 119266
9 | 26:30.17 | 3:09.47 | 119267 | 133488
10 | 29:39.64 | 3:38.62 | 133489 | 149900
11 | 33:18.51 | 2:33.54 | 149901 | 161429
12 | 35:52.30 | 2:20.55 | 161430 | 171984
13 | 38:13.10 | 4:44.64 | 171985 | 193348
14 | 42:57.74 | 2:28.10 | 193349 | 204458
15 | 45:26.09 | 2:45.63 | 204459 | 216896
16 | 48:11.72 | 3:49.45 | 216897 | 234116
17 | 52:01.42 | 2:33.11 | 234117 | 245602
18 | 54:34.53 | 3:02.53 | 245603 | 259305
19 | 57:37.31 | 4:08.23 | 259306 | 277928
20 | 61:45.54 | 2:27.20 | 277929 | 288973
Range status and errors
Selected range
Filename I:\Rips\The Meteors - Psychobilly Rules! - The Collection.wav
Peak level 96.7 %
Extraction speed 1.8 X
Range quality 100.0 %
Test CRC 3416F1BB
Copy CRC 3416F1BB
Copy OK
No errors occurred
AccurateRip summary
Track 1 accurately ripped (confidence 1) [DBD98A3F] (AR v2)
Track 2 accurately ripped (confidence 1) [A0E4497E] (AR v2)
Track 3 accurately ripped (confidence 1) [31262165] (AR v2)
Track 4 accurately ripped (confidence 1) [0463E4F9] (AR v2)
Track 5 accurately ripped (confidence 1) [3E8F94CB] (AR v2)
Track 6 accurately ripped (confidence 1) [A4238456] (AR v2)
Track 7 accurately ripped (confidence 1) [AFA88C27] (AR v2)
Track 8 accurately ripped (confidence 1) [BE102681] (AR v2)
Track 9 accurately ripped (confidence 1) [79DF9992] (AR v2)
Track 10 accurately ripped (confidence 1) [E5552868] (AR v2)
Track 11 accurately ripped (confidence 1) [F1F37FDB] (AR v2)
Track 12 accurately ripped (confidence 1) [BDADEA72] (AR v2)
Track 13 accurately ripped (confidence 1) [29C9BFBA] (AR v2)
Track 14 accurately ripped (confidence 1) [C9683638] (AR v2)
Track 15 accurately ripped (confidence 1) [EAD3F5E7] (AR v2)
Track 16 accurately ripped (confidence 1) [5DA2D63C] (AR v2)
Track 17 accurately ripped (confidence 1) [454080BC] (AR v2)
Track 18 accurately ripped (confidence 1) [0F4D4ADD] (AR v2)
Track 19 accurately ripped (confidence 1) [AAE48547] (AR v2)
Track 20 accurately ripped (confidence 1) [2825A69A] (AR v2)
All tracks accurately ripped
End of status report
==== Log checksum 7BD35CDF61CAFE01AC47298830FC6F92FF5687C780E9D10C39B43C74749811F0 ====

AccurateRip

[CUETools log; Date: 18.04.2015 14:18:26; Version: 2.1.4]
[CTDB TOCID: Q9vYA2k3.T7iYHaTq.bBDTpLctg-] found.
Track | CTDB Status
1 | (1/1) Accurately ripped
2 | (1/1) Accurately ripped
3 | (1/1) Accurately ripped
4 | (1/1) Accurately ripped
5 | (1/1) Accurately ripped
6 | (1/1) Accurately ripped
7 | (1/1) Accurately ripped
8 | (1/1) Accurately ripped
9 | (1/1) Accurately ripped
10 | (1/1) Accurately ripped
11 | (1/1) Accurately ripped
12 | (1/1) Accurately ripped
13 | (1/1) Accurately ripped
14 | (1/1) Accurately ripped
15 | (1/1) Accurately ripped
16 | (1/1) Accurately ripped
17 | (1/1) Accurately ripped
18 | (1/1) Accurately ripped
19 | (1/1) Accurately ripped
20 | (1/1) Accurately ripped
[AccurateRip ID: 002ef79c-02ae74f8-230f0c14] found.
Track [ CRC | V2 ] Status
01 [b927ba59|dbd98a3f] (0+1/1) Accurately ripped
02 [9078458d|a0e4497e] (0+1/1) Accurately ripped
03 [fa9ad88f|31262165] (0+1/1) Accurately ripped
04 [5ccb7545|0463e4f9] (0+1/1) Accurately ripped
05 [471d80b6|3e8f94cb] (0+1/1) Accurately ripped
06 [56a9e523|a4238456] (0+1/1) Accurately ripped
07 [981bfe70|afa88c27] (0+1/1) Accurately ripped
08 [0321e880|be102681] (0+1/1) Accurately ripped
09 [e815a8e5|79df9992] (0+1/1) Accurately ripped
10 [e203147c|e5552868] (0+1/1) Accurately ripped
11 [460293c6|f1f37fdb] (0+1/1) Accurately ripped
12 [ae9ed99b|bdadea72] (0+1/1) Accurately ripped
13 [af742bab|29c9bfba] (0+1/1) Accurately ripped
14 [dfa179b9|c9683638] (0+1/1) Accurately ripped
15 [d7921153|ead3f5e7] (0+1/1) Accurately ripped
16 [a1776322|5da2d63c] (0+1/1) Accurately ripped
17 [7bf8d42d|454080bc] (0+1/1) Accurately ripped
18 [a8a49257|0f4d4add] (0+1/1) Accurately ripped
19 [6e026504|aae48547] (0+1/1) Accurately ripped
20 [fe638b1a|2825a69a] (0+1/1) Accurately ripped
Track Peak [ CRC32 ] [W/O NULL] [ LOG ]
-- 96,6 [3416F1BB] [43919748] CRC32
01 96,6 [E57DD188] [247E8130]
02 96,6 [BAC8C100] [FED29016]
03 96,6 [D3565FBC] [9E84E221]
04 96,6 [5AE0D919] [08415B1B]
05 96,6 [1E9BD04D] [84530C3B]
06 96,6 [6F9BE322] [93E61E37]
07 96,6 [078D9456] [A7B6BB63]
08 96,6 [024B25B7] [F0E80068]
09 96,6 [9D69C668] [38FD9520]
10 96,6 [36AD2B86] [233FB565]
11 96,6 [F472D8DF] [01C83A8D]
12 96,6 [87A16ACC] [F69D0B10]
13 96,6 [79A097E0] [C757C3E5]
14 96,6 [EAB706BE] [1FC9102A]
15 96,6 [2BDEF55D] [EBB59589]
16 96,6 [3B677E95] [02827D85]
17 96,6 [AB3A892F] [714DC01E]
18 96,6 [AF87786D] [282FCA5E]
19 96,6 [F0AE9078] [D0333583]
20 96,6 [E16B68B6] [03229812]

Об исполнителе (группе&#41;

https://ru.wikipedia.org/wiki/The_Meteors
[erzsebet.org].t35038.torrent 
Торрент: Зарегистрирован [ 2019-03-15 02:48 ]

Скачать .torrent

Скачать

21 KB

Статус: проверено
Скачан: 1 раз
Размер: 500 MB
Поблагодарили: 0  Спасибо
terms.php
[Профиль]  [ЛС] 
Показать сообщения:    
Ответить на тему

Текущее время: 23-Май 16:53

Часовой пояс: UTC + 3



Вы не можете начинать темы
Вы не можете отвечать на сообщения
Вы не можете редактировать свои сообщения
Вы не можете удалять свои сообщения
Вы не можете голосовать в опросах
Вы не можете прикреплять файлы к сообщениям
Вы можете скачивать файлы