Пизанская башня (Юрий Кузьменко) [2010, Украина, комедийная мелодрама, TVRip] Original (rus)

Ответить на тему
Статистика раздачи
Размер:  6,17 GB   |    Зарегистрирован:  3 месяца 5 дней   |    Скачан:  1 раз

Полного источника не было: 3 месяца 2 дня

 
 
 
Автор Сообщение

erzsebet ®

Стаж: 14 лет

Сообщений: 39834

Откуда: Hungary

Создавать темы 15-Мар-2019 04:13  |  Сменить автора

[Цитировать] 

Пизанская башня
Страна: Украина
Жанр: комедийная мелодрама
Год выпуска: 2010
Продолжительность: 01:36:45
Язык: русский
Субтитры: нет
Оригинальная аудиодорожка: русский
Режиссёр: Юрий Кузьменко
В ролях: Алёна Бабенко, Николай Фоменко, Лидия Федосеева-Шукшина, Константин Глушков, Александр Горохов (II), Алексей Тимошкин (II), Сергей Лобанов (II), Александр Серов-Останкинский, Игорь Гузун
Описание: Они живут вместе 20 лет. Муж и жена давно уже не испытывают друг к другу никаких чувств и просто приспособились к такому существованию. Родив сына и оставив любимую работу в библиотеке, жена полностью погружается в домашние заботы: уборка, стирка, готовка...
Доп. информация:
Сценарист: Надежда Птушкина
Оператор: Анатолий Калашников
Композитор: Анатолий Дергачев
Художник: Владимир Ефимов
Продюсеры: Юрий Володарский, Дмитрий Харитонов (II)
Производство: Студия Дмитрия Харитонова и AFL-продакшн
Год: 2010
Премьера: 13 сентября 2010
Качество видео: TVRip
Формат видео: DVD Video
Видео: MPEG2 Video 720x576 (4:3) 25.00fps 8739Kbps [Video]
Аудио: Dolby AC3 48000Hz stereo 192Kbps [AC-3]

MediaInfo

Полное имя : G:\DVD\Пизанская башня\VIDEO_TS\VIDEO_TS.BUP
Формат : DVD Video
Профиль формата : Menu
Размер файла : 8,00 Кбайт
Видео
Идентификатор : 224 (0xE0)
Формат : MPEG Video
Версия формата : Version 1
Вид битрейта : Переменный
Ширина : 720 пикс.
Высота : 576 пикс.
Соотношение сторон : 4:3
Частота кадров : 25,000 кадр/сек
Стандарт вещания : PAL
Метод сжатия : С потерями
Общее
Полное имя : G:\DVD\Пизанская башня\VIDEO_TS\VIDEO_TS.IFO
Формат : DVD Video
Профиль формата : Menu
Размер файла : 8,00 Кбайт
Видео
Идентификатор : 224 (0xE0)
Формат : MPEG Video
Версия формата : Version 1
Вид битрейта : Переменный
Ширина : 720 пикс.
Высота : 576 пикс.
Соотношение сторон : 4:3
Частота кадров : 25,000 кадр/сек
Стандарт вещания : PAL
Метод сжатия : С потерями
Общее
Полное имя : G:\DVD\Пизанская башня\VIDEO_TS\VTS_01_0.BUP
Формат : DVD Video
Профиль формата : Program
Размер файла : 66,0 Кбайт
Продолжительность : 1 ч. 36 м.
Общий поток : 93 бит/сек
Видео
Идентификатор : 224 (0xE0)
Формат : MPEG Video
Версия формата : Version 2
Продолжительность : 1 ч. 36 м.
Вид битрейта : Переменный
Ширина : 720 пикс.
Высота : 576 пикс.
Соотношение сторон : 4:3
Частота кадров : 25,000 кадр/сек
Стандарт вещания : PAL
Метод сжатия : С потерями
Аудио
Идентификатор : 128 (0x80)
Формат : AC-3
Формат/Информация : Audio Coding 3
Продолжительность : 1 ч. 36 м.
Каналы : 2 канала
Частота : 48,0 КГц
Метод сжатия : С потерями
Меню
Продолжительность : 1 ч. 36 м.
00:00:00.000 : Chapter 1
00:10:06.720 : Chapter 2
00:20:00.000 : Chapter 3
00:30:04.800 : Chapter 4
00:39:58.560 : Chapter 5
00:50:03.360 : Chapter 6
00:59:57.120 : Chapter 7
01:10:01.920 : Chapter 8
01:20:06.720 : Chapter 9
01:29:48.960 : Chapter 10
01:34:03.840 : Chapter 11
List (Audio) : 0
Общее
Полное имя : G:\DVD\Пизанская башня\VIDEO_TS\VTS_01_0.IFO
Формат : DVD Video
Профиль формата : Program
Размер файла : 66,0 Кбайт
Продолжительность : 1 ч. 36 м.
Общий поток : 93 бит/сек
Видео
Идентификатор : 224 (0xE0)
Формат : MPEG Video
Версия формата : Version 2
Продолжительность : 1 ч. 36 м.
Вид битрейта : Переменный
Ширина : 720 пикс.
Высота : 576 пикс.
Соотношение сторон : 4:3
Частота кадров : 25,000 кадр/сек
Стандарт вещания : PAL
Метод сжатия : С потерями
Аудио
Идентификатор : 128 (0x80)
Формат : AC-3
Формат/Информация : Audio Coding 3
Продолжительность : 1 ч. 36 м.
Каналы : 2 канала
Частота : 48,0 КГц
Метод сжатия : С потерями
Меню
Продолжительность : 1 ч. 36 м.
00:00:00.000 : Chapter 1
00:10:06.720 : Chapter 2
00:20:00.000 : Chapter 3
00:30:04.800 : Chapter 4
00:39:58.560 : Chapter 5
00:50:03.360 : Chapter 6
00:59:57.120 : Chapter 7
01:10:01.920 : Chapter 8
01:20:06.720 : Chapter 9
01:29:48.960 : Chapter 10
01:34:03.840 : Chapter 11
List (Audio) : 0
Общее
Полное имя : G:\DVD\Пизанская башня\VIDEO_TS\VTS_01_1.VOB
Формат : MPEG-PS
Размер файла : 1024 Мбайт
Продолжительность : 15 м.
Общий поток : 9139 Кбит/сек
Видео
Идентификатор : 224 (0xE0)
Формат : MPEG Video
Версия формата : Version 2
Профиль формата : Main@Main
Параметр BVOP формата : Да
Параметр матрицы формата : По умолчанию
Параметры GOP формата : M=3, N=12
Продолжительность : 15 м.
Вид битрейта : Переменный
Битрейт : 8766 Кбит/сек
Номинальный битрейт : 9282 Кбит/сек
Ширина : 720 пикс.
Высота : 576 пикс.
Соотношение сторон : 4:3
Частота кадров : 25,000 кадр/сек
Стандарт вещания : PAL
Цветовое пространство : YUV
Подвыборка цветности : 4:2:0
Битовая глубина : 8 бит
Тип развёртки : Чересстрочная
Порядок развёртки : Верхнее поле первое
Метод сжатия : С потерями
Бит/(Пиксели*Кадры) : 0.845
Размер потока : 982 Мбайт (96%)
Аудио
Идентификатор : 189 (0xBD)-128 (0x80)
Формат : AC-3
Формат/Информация : Audio Coding 3
Расширение режима : CM (complete main)
Режим смешивания : DVD-Video
Продолжительность : 15 м.
Вид битрейта : Постоянный
Битрейт : 192 Кбит/сек
Каналы : 2 канала
Расположение каналов : Front: L R
Частота : 48,0 КГц
Битовая глубина : 16 бит
Метод сжатия : С потерями
Задержка видео : -92 мс.
Размер потока : 21,5 Мбайт (2%)
Меню
Общее
Полное имя : G:\DVD\Пизанская башня\VIDEO_TS\VTS_01_2.VOB
Формат : MPEG-PS
Размер файла : 1024 Мбайт
Продолжительность : 15 м.
Общий поток : 9121 Кбит/сек
Видео
Идентификатор : 224 (0xE0)
Формат : MPEG Video
Версия формата : Version 2
Профиль формата : Main@Main
Параметр BVOP формата : Да
Параметр матрицы формата : По умолчанию
Параметры GOP формата : M=3, N=12
Продолжительность : 15 м.
Вид битрейта : Переменный
Битрейт : 8748 Кбит/сек
Номинальный битрейт : 9282 Кбит/сек
Ширина : 720 пикс.
Высота : 576 пикс.
Соотношение сторон : 4:3
Частота кадров : 25,000 кадр/сек
Стандарт вещания : PAL
Цветовое пространство : YUV
Подвыборка цветности : 4:2:0
Битовая глубина : 8 бит
Тип развёртки : Чересстрочная
Порядок развёртки : Верхнее поле первое
Метод сжатия : С потерями
Бит/(Пиксели*Кадры) : 0.844
Размер потока : 982 Мбайт (96%)
Аудио
Идентификатор : 189 (0xBD)-128 (0x80)
Формат : AC-3
Формат/Информация : Audio Coding 3
Расширение режима : CM (complete main)
Режим смешивания : DVD-Video
Продолжительность : 15 м.
Вид битрейта : Постоянный
Битрейт : 192 Кбит/сек
Каналы : 2 канала
Расположение каналов : Front: L R
Частота : 48,0 КГц
Битовая глубина : 16 бит
Метод сжатия : С потерями
Задержка видео : -604 мс.
Размер потока : 21,6 Мбайт (2%)
Меню
Общее
Полное имя : G:\DVD\Пизанская башня\VIDEO_TS\VTS_01_3.VOB
Формат : MPEG-PS
Размер файла : 1024 Мбайт
Продолжительность : 15 м.
Общий поток : 9103 Кбит/сек
Видео
Идентификатор : 224 (0xE0)
Формат : MPEG Video
Версия формата : Version 2
Профиль формата : Main@Main
Параметр BVOP формата : Да
Параметр матрицы формата : По умолчанию
Параметры GOP формата : M=3, N=12
Продолжительность : 15 м.
Вид битрейта : Переменный
Битрейт : 8730 Кбит/сек
Номинальный битрейт : 9282 Кбит/сек
Ширина : 720 пикс.
Высота : 576 пикс.
Соотношение сторон : 4:3
Частота кадров : 25,000 кадр/сек
Стандарт вещания : PAL
Цветовое пространство : YUV
Подвыборка цветности : 4:2:0
Битовая глубина : 8 бит
Тип развёртки : Чересстрочная
Порядок развёртки : Верхнее поле первое
Метод сжатия : С потерями
Бит/(Пиксели*Кадры) : 0.842
Размер потока : 982 Мбайт (96%)
Аудио
Идентификатор : 189 (0xBD)-128 (0x80)
Формат : AC-3
Формат/Информация : Audio Coding 3
Расширение режима : CM (complete main)
Режим смешивания : DVD-Video
Продолжительность : 15 м.
Вид битрейта : Постоянный
Битрейт : 192 Кбит/сек
Каналы : 2 канала
Расположение каналов : Front: L R
Частота : 48,0 КГц
Битовая глубина : 16 бит
Метод сжатия : С потерями
Задержка видео : -572 мс.
Размер потока : 21,6 Мбайт (2%)
Меню
Общее
Полное имя : G:\DVD\Пизанская башня\VIDEO_TS\VTS_01_4.VOB
Формат : MPEG-PS
Размер файла : 1024 Мбайт
Продолжительность : 15 м.
Общий поток : 9127 Кбит/сек
Видео
Идентификатор : 224 (0xE0)
Формат : MPEG Video
Версия формата : Version 2
Профиль формата : Main@Main
Параметр BVOP формата : Да
Параметр матрицы формата : По умолчанию
Параметры GOP формата : M=3, N=12
Продолжительность : 15 м.
Вид битрейта : Переменный
Битрейт : 8753 Кбит/сек
Номинальный битрейт : 9282 Кбит/сек
Ширина : 720 пикс.
Высота : 576 пикс.
Соотношение сторон : 4:3
Частота кадров : 25,000 кадр/сек
Стандарт вещания : PAL
Цветовое пространство : YUV
Подвыборка цветности : 4:2:0
Битовая глубина : 8 бит
Тип развёртки : Чересстрочная
Порядок развёртки : Верхнее поле первое
Метод сжатия : С потерями
Бит/(Пиксели*Кадры) : 0.844
Размер потока : 982 Мбайт (96%)
Аудио
Идентификатор : 189 (0xBD)-128 (0x80)
Формат : AC-3
Формат/Информация : Audio Coding 3
Расширение режима : CM (complete main)
Режим смешивания : DVD-Video
Продолжительность : 15 м.
Вид битрейта : Постоянный
Битрейт : 192 Кбит/сек
Каналы : 2 канала
Расположение каналов : Front: L R
Частота : 48,0 КГц
Битовая глубина : 16 бит
Метод сжатия : С потерями
Задержка видео : -572 мс.
Размер потока : 21,5 Мбайт (2%)
Меню
Общее
Полное имя : G:\DVD\Пизанская башня\VIDEO_TS\VTS_01_5.VOB
Формат : MPEG-PS
Размер файла : 1024 Мбайт
Продолжительность : 15 м.
Общий поток : 9125 Кбит/сек
Видео
Идентификатор : 224 (0xE0)
Формат : MPEG Video
Версия формата : Version 2
Профиль формата : Main@Main
Параметр BVOP формата : Да
Параметр матрицы формата : По умолчанию
Параметры GOP формата : M=3, N=12
Продолжительность : 15 м.
Вид битрейта : Переменный
Битрейт : 8752 Кбит/сек
Номинальный битрейт : 9282 Кбит/сек
Ширина : 720 пикс.
Высота : 576 пикс.
Соотношение сторон : 4:3
Частота кадров : 25,000 кадр/сек
Стандарт вещания : PAL
Цветовое пространство : YUV
Подвыборка цветности : 4:2:0
Битовая глубина : 8 бит
Тип развёртки : Чересстрочная
Порядок развёртки : Верхнее поле первое
Метод сжатия : С потерями
Бит/(Пиксели*Кадры) : 0.844
Размер потока : 982 Мбайт (96%)
Аудио
Идентификатор : 189 (0xBD)-128 (0x80)
Формат : AC-3
Формат/Информация : Audio Coding 3
Расширение режима : CM (complete main)
Режим смешивания : DVD-Video
Продолжительность : 15 м.
Вид битрейта : Постоянный
Битрейт : 192 Кбит/сек
Каналы : 2 канала
Расположение каналов : Front: L R
Частота : 48,0 КГц
Битовая глубина : 16 бит
Метод сжатия : С потерями
Задержка видео : -636 мс.
Размер потока : 21,5 Мбайт (2%)
Меню
Общее
Полное имя : G:\DVD\Пизанская башня\VIDEO_TS\VTS_01_6.VOB
Формат : MPEG-PS
Размер файла : 1024 Мбайт
Продолжительность : 15 м.
Общий поток : 9112 Кбит/сек
Видео
Идентификатор : 224 (0xE0)
Формат : MPEG Video
Версия формата : Version 2
Профиль формата : Main@Main
Параметр BVOP формата : Да
Параметр матрицы формата : По умолчанию
Параметры GOP формата : M=3, N=12
Продолжительность : 15 м.
Вид битрейта : Переменный
Битрейт : 8739 Кбит/сек
Номинальный битрейт : 9282 Кбит/сек
Ширина : 720 пикс.
Высота : 576 пикс.
Соотношение сторон : 4:3
Частота кадров : 25,000 кадр/сек
Стандарт вещания : PAL
Цветовое пространство : YUV
Подвыборка цветности : 4:2:0
Битовая глубина : 8 бит
Тип развёртки : Чересстрочная
Порядок развёртки : Верхнее поле первое
Метод сжатия : С потерями
Бит/(Пиксели*Кадры) : 0.843
Размер потока : 982 Мбайт (96%)
Аудио
Идентификатор : 189 (0xBD)-128 (0x80)
Формат : AC-3
Формат/Информация : Audio Coding 3
Расширение режима : CM (complete main)
Режим смешивания : DVD-Video
Продолжительность : 15 м.
Вид битрейта : Постоянный
Битрейт : 192 Кбит/сек
Каналы : 2 канала
Расположение каналов : Front: L R
Частота : 48,0 КГц
Битовая глубина : 16 бит
Метод сжатия : С потерями
Задержка видео : -540 мс.
Размер потока : 21,6 Мбайт (2%)
Меню
Общее
Полное имя : G:\DVD\Пизанская башня\VIDEO_TS\VTS_01_7.VOB
Формат : MPEG-PS
Размер файла : 170 Мбайт
Продолжительность : 2 м. 34 с.
Общий поток : 9226 Кбит/сек
Видео
Идентификатор : 224 (0xE0)
Формат : MPEG Video
Версия формата : Version 2
Профиль формата : Main@Main
Параметр BVOP формата : Да
Параметр матрицы формата : По умолчанию
Параметры GOP формата : M=3, N=12
Продолжительность : 2 м. 34 с.
Вид битрейта : Переменный
Битрейт : 9282 Кбит/сек
Ширина : 720 пикс.
Высота : 576 пикс.
Соотношение сторон : 4:3
Частота кадров : 25,000 кадр/сек
Стандарт вещания : PAL
Цветовое пространство : YUV
Подвыборка цветности : 4:2:0
Битовая глубина : 8 бит
Тип развёртки : Чересстрочная
Порядок развёртки : Верхнее поле первое
Метод сжатия : С потерями
Бит/(Пиксели*Кадры) : 0.895
Размер потока : 163 Мбайт (96%)
Аудио
Идентификатор : 189 (0xBD)-128 (0x80)
Формат : AC-3
Формат/Информация : Audio Coding 3
Расширение режима : CM (complete main)
Режим смешивания : DVD-Video
Продолжительность : 2 м. 34 с.
Вид битрейта : Постоянный
Битрейт : 192 Кбит/сек
Каналы : 2 канала
Расположение каналов : Front: L R
Частота : 48,0 КГц
Битовая глубина : 16 бит
Метод сжатия : С потерями
Задержка видео : -508 мс.
Размер потока : 3,54 Мбайт (2%)

Скриншот c названием фильма

[erzsebet.org].t35047.torrent 
Торрент: Зарегистрирован [ 2019-03-15 04:13 ]

Скачать .torrent

Скачать

32 KB

Статус: проверено
Скачан: 1 раз
Размер: 6,17 GB
Поблагодарили: 1  Спасибо   (список)
terms.php
[Профиль]  [ЛС] 
Показать сообщения:    
Ответить на тему

Текущее время: 21-Июн 01:18

Часовой пояс: UTC + 3



Вы не можете начинать темы
Вы не можете отвечать на сообщения
Вы не можете редактировать свои сообщения
Вы не можете удалять свои сообщения
Вы не можете голосовать в опросах
Вы не можете прикреплять файлы к сообщениям
Вы можете скачивать файлы