<

(Psychobilly) The Meteors - 1986 - Teenagers From Outer Space [1989, Big Beat Records CDWIK 47], FLAC (image+.cue), lossless

Ответить на тему
Статистика раздачи
Размер:  293 MB   |    Зарегистрирован:  2 месяца 6 дней   |    Скачан:  1 раз

Полного источника не было: 2 месяца 5 дней

 
 
 
Автор Сообщение

erzsebet ®

Стаж: 14 лет

Сообщений: 38895

Откуда: Hungary

Создавать темы 15-Мар-2019 07:23  |  Сменить автора

[Цитировать] 

The Meteors / Teenagers From Outer Space
Жанр: Psychobilly
Носитель: CD
Страна-производитель диска: UK
Год издания: 1986
Издатель (лейбл): Big Beat Records
Номер по каталогу: CDWIK 47
Страна: UK
Аудиокодек: FLAC (*.flac)
Тип рипа: image+.cue
Битрейт аудио: lossless
Продолжительность: 45:55
Наличие сканов в содержимом раздачи: нет
Треклист:
01. Voodoo Rhythm [2:55]
02. Maniac Rockers From Hell [2:13]
03. My Daddy Is A Vampire [3:39]
04. You Can’t Keep A Good Man Down [1:55]
05. Graveyard Stomp [2:06]
06. Radioactive Kid [1:43]
07. Leave Me Alone [3:11]
08. Dog Eat Robot [2:17]
09. Walter Mitty Blues [2:01]
10. Just The Three Of Us [4:03]
11. Blue Sunshine [2:46]
12. Insight (Live) [1:56]
13. Attack Of The Zorch Men (Live) [2:23]
14. Jupiter Stroll [2:11]
15. Another Half Hour Till Sunrise [2:31]
16. Island Of The Lost Souls [3:43]
17. The Napoleon Solo [1:56]
18. Get Me To The World On Time [2:27]

Лог создания рипа

Exact Audio Copy V1.0 beta 4 from 7. December 2014
EAC extraction logfile from 14. April 2015, 20:57
The Meteors / Teenagers From Outer Space
Used drive : IOMEGA CDRW55292EXT3-B Adapter: 1 ID: 3
Read mode : Secure
Utilize accurate stream : Yes
Defeat audio cache : Yes
Make use of C2 pointers : No
Read offset correction : 6
Overread into Lead-In and Lead-Out : No
Fill up missing offset samples with silence : Yes
Delete leading and trailing silent blocks : No
Null samples used in CRC calculations : Yes
Used interface : Native Win32 interface for Win NT & 2000
Used output format : User Defined Encoder
Selected bitrate : 768 kBit/s
Quality : High
Add ID3 tag : No
Command line compressor : C:\Archivos de programa\Exact Audio Copy\Flac\flac.exe
Additional command line options : -V -8 -T "Genre=%genre%" -T "Artist=%artist%" -T "Title=%title%" -T "Album=%albumtitle%" -T "Date=%year%" -T "Tracknumber=%tracknr%" -T "Comment=%comment%" %source%
TOC of the extracted CD
Track | Start | Length | Start sector | End sector
---------------------------------------------------------
1 | 0:00.00 | 2:54.60 | 0 | 13109
2 | 2:54.60 | 2:12.52 | 13110 | 23061
3 | 5:07.37 | 3:39.25 | 23062 | 39511
4 | 8:46.62 | 1:54.65 | 39512 | 48126
5 | 10:41.52 | 2:06.18 | 48127 | 57594
6 | 12:47.70 | 1:43.10 | 57595 | 65329
7 | 14:31.05 | 3:10.65 | 65330 | 79644
8 | 17:41.70 | 2:17.30 | 79645 | 89949
9 | 19:59.25 | 2:01.12 | 89950 | 99036
10 | 22:00.37 | 4:02.68 | 99037 | 117254
11 | 26:03.30 | 2:45.72 | 117255 | 129701
12 | 28:49.27 | 1:55.68 | 129702 | 138394
13 | 30:45.20 | 2:23.02 | 138395 | 149121
14 | 33:08.22 | 2:10.48 | 149122 | 158919
15 | 35:18.70 | 2:31.17 | 158920 | 170261
16 | 37:50.12 | 3:43.13 | 170262 | 186999
17 | 41:33.25 | 1:55.60 | 187000 | 195684
18 | 43:29.10 | 2:26.60 | 195685 | 206694
Range status and errors
Selected range
Filename H:\Torrents erzsebet.org\The Meteors-1986-Teenagers From Outer Space [1989, Big Beat Records CDWIK 47]\The Meteors - Teenagers From Outer Space.wav
Peak level 99.2 %
Extraction speed 7.8 X
Range quality 99.9 %
Test CRC 2C902216
Copy CRC 2C902216
Copy OK
No errors occurred
AccurateRip summary
Track 1 accurately ripped (confidence 1) [03A70854] (AR v2)
Track 2 accurately ripped (confidence 1) [02654FE8] (AR v2)
Track 3 accurately ripped (confidence 1) [E54C310B] (AR v2)
Track 4 accurately ripped (confidence 1) [68BA1A2D] (AR v2)
Track 5 accurately ripped (confidence 1) [AE1598CE] (AR v2)
Track 6 accurately ripped (confidence 1) [BD9828FF] (AR v2)
Track 7 accurately ripped (confidence 1) [92028C7A] (AR v2)
Track 8 accurately ripped (confidence 1) [F7B2C6A9] (AR v2)
Track 9 accurately ripped (confidence 1) [DAAE2F37] (AR v2)
Track 10 accurately ripped (confidence 1) [E7B118C8] (AR v2)
Track 11 accurately ripped (confidence 1) [2154887B] (AR v2)
Track 12 accurately ripped (confidence 1) [92244A58] (AR v2)
Track 13 accurately ripped (confidence 1) [33E2C512] (AR v2)
Track 14 accurately ripped (confidence 1) [3FE806D3] (AR v2)
Track 15 accurately ripped (confidence 1) [6DE22998] (AR v2)
Track 16 accurately ripped (confidence 1) [1A674004] (AR v2)
Track 17 accurately ripped (confidence 1) [A2861654] (AR v2)
Track 18 accurately ripped (confidence 1) [5388F599] (AR v2)
All tracks accurately ripped
End of status report
==== Log checksum 8250895456B1E5213E7B17D61793CAFF2DA231E642C4919791F9190593188E21 ====

Содержание индексной карты (.CUE&#41;

REM GENRE Psychobilly
REM DATE 1986
REM DISCID EA0AC312
REM COMMENT reissue 1989, Big Beat Records CDWIK 47
PERFORMER "The Meteors"
TITLE "Teenagers From Outer Space"
FILE "The Meteors - Teenagers From Outer Space.flac" WAVE
TRACK 01 AUDIO
TITLE "Voodoo Rhythm"
INDEX 01 00:00:00
TRACK 02 AUDIO
TITLE "Maniac Rockers From Hell"
INDEX 00 02:54:45
INDEX 01 02:54:60
TRACK 03 AUDIO
TITLE "My Daddy Is A Vampire"
INDEX 00 05:06:17
INDEX 01 05:07:37
TRACK 04 AUDIO
TITLE "You Can’t Keep A Good Man Down"
INDEX 00 08:46:17
INDEX 01 08:46:62
TRACK 05 AUDIO
TITLE "Graveyard Stomp"
INDEX 00 10:40:60
INDEX 01 10:41:52
TRACK 06 AUDIO
TITLE "Radioactive Kid"
INDEX 00 12:47:25
INDEX 01 12:47:70
TRACK 07 AUDIO
TITLE "Leave Me Alone"
INDEX 00 14:30:20
INDEX 01 14:31:05
TRACK 08 AUDIO
TITLE "Dog Eat Robot"
INDEX 00 17:41:00
INDEX 01 17:41:70
TRACK 09 AUDIO
TITLE "Walter Mitty Blues"
INDEX 00 19:58:57
INDEX 01 19:59:25
TRACK 10 AUDIO
TITLE "Just The Three Of Us"
INDEX 01 22:00:37
TRACK 11 AUDIO
TITLE "Blue Sunshine"
INDEX 00 26:03:00
INDEX 01 26:03:30
TRACK 12 AUDIO
TITLE "Insight (Live)"
INDEX 00 28:48:30
INDEX 01 28:49:27
TRACK 13 AUDIO
TITLE "Attack Of The Zorch Men (Live)"
INDEX 01 30:45:20
TRACK 14 AUDIO
TITLE "Jupiter Stroll"
INDEX 00 33:07:40
INDEX 01 33:08:22
TRACK 15 AUDIO
TITLE "Another Half Hour Till Sunrise"
INDEX 00 35:17:62
INDEX 01 35:18:70
TRACK 16 AUDIO
TITLE "Island Of The Lost Souls"
INDEX 00 37:49:20
INDEX 01 37:50:12
TRACK 17 AUDIO
TITLE "The Napoleon Solo"
INDEX 00 41:32:12
INDEX 01 41:33:25
TRACK 18 AUDIO
TITLE "Get Me To The World On Time"
INDEX 00 43:28:45
INDEX 01 43:29:10

Скриншот спектра частот

[erzsebet.org].t35058.torrent 
Торрент: Зарегистрирован [ 2019-03-15 07:23 ]

Скачать .torrent

Скачать

24 KB

Статус: проверено
Скачан: 1 раз
Размер: 293 MB
Поблагодарили: 0  Спасибо
terms.php
[Профиль]  [ЛС] 
Показать сообщения:    
Ответить на тему

Текущее время: 21-Май 08:54

Часовой пояс: UTC + 3



Вы не можете начинать темы
Вы не можете отвечать на сообщения
Вы не можете редактировать свои сообщения
Вы не можете удалять свои сообщения
Вы не можете голосовать в опросах
Вы не можете прикреплять файлы к сообщениям
Вы можете скачивать файлы