<

[WakeUpNFuck.com / WoodmanCastingX.com] Raven Bay (WUNF 236) [2017-12-30, Anal, Big Tits, Casting, All Sex, 1080p]

Ответить на тему
Статистика раздачи
Размер:  2,42 GB   |    Зарегистрирован:  2 месяца 6 дней   |    Скачан:  4 раза

Полного источника не было: 16 дней

 
 
 
Автор Сообщение

erzsebet ®

Стаж: 14 лет

Сообщений: 38895

Откуда: Hungary

Создавать темы 15-Мар-2019 07:38  |  Сменить автора

[Цитировать] 

Raven Bay - WakeUpNFuck - WUNF 236
Имя актрисы: Raven Bay
Название ролика: WUNF 236
Подсайт и сайт: WakeUpNFuck.com / WoodmanCastingX.com
Дата производства: 2017-12-30
Жанр: Anal, Big Tits, Casting, All Sex
Продолжительность: 01:10:17
Тип HD видео: 1080p
Формат видео: MP4
Видео: AVC, 1920x1080, 29.970 (30000/1001) кадров/сек, 4000 Кбит/сек, High@L4
Аудио: AAC LC, 44,1 КГц, 2 канала, 150 Кбит/сек

Скринлист

MI

Общее
Полное имя : D:\!Torrent\End\!My\Raven Bay - WakeUpNFuck - WUNF 236 1080p.mp4
Формат : MPEG-4
Профиль формата : Base Media
Идентификатор кодека : isom (isom)
Размер файла : 2,42 Гбайт
Продолжительность : 1 ч. 10 м.
Режим общего битрейта : Переменный
Общий поток : 4924 Кбит/сек
Дата кодирования : UTC 2018-01-02 17:47:50
Дата пометки : UTC 2018-01-02 17:47:50
Видео
Идентификатор : 1
Формат : AVC
Формат/Информация : Advanced Video Codec
Профиль формата : High@L4
Настройки формата : CABAC / 4 Ref Frames
Параметр CABAC формата : Да
Параметр RefFrames формата : 4 кадра
Параметр GOP формата : M=1, N=50
Идентификатор кодека : avc1
Идентификатор кодека/Информация : Advanced Video Coding
Продолжительность : 1 ч. 10 м.
Продолжительность оригинала : 1 ч. 10 м.
Source_Duration_LastFrame : 7 мс.
Битрейт : 4571 Кбит/сек
Номинальный битрейт : 4000 Кбит/сек
Максимальный битрейт : 7460 Кбит/сек
Ширина : 1920 пикселей
Высота : 1080 пикселей
Соотношение сторон : 16:9
Режим частоты кадров : Постоянный
Частота кадров : 29,970 (30000/1001) кадров/сек
Частота кадров в оригинале : 25,000 кадров/сек
Цветовое пространство : YUV
Субдискретизация насыщенности : 4:2:0
Битовая глубина : 8 бит
Тип развёртки : Прогрессивная
Бит/(Пиксели*Кадры) : 0.074
Размер потока : 2,24 Гбайт (93%)
Размер потока оригинала : 2,34 Гбайт (97%)
Библиотека кодирования : x264 core 148 r209 7599210
Настройки программы : cabac=1 / ref=4 / deblock=1:0:0 / analyse=0x3:0x113 / me=umh / subme=8 / psy=1 / psy_rd=1.00:0.00 / mixed_ref=1 / me_range=16 / chroma_me=1 / trellis=1 / 8x8dct=1 / cqm=0 / deadzone=21,11 / fast_pskip=1 / chroma_qp_offset=0 / threads=34 / lookahead_threads=5 / sliced_threads=0 / nr=0 / decimate=1 / interlaced=0 / bluray_compat=0 / stitchable=1 / constrained_intra=0 / bframes=0 / weightp=0 / keyint=50 / keyint_min=26 / scenecut=0 / intra_refresh=0 / rc_lookahead=50 / rc=2pass / mbtree=1 / bitrate=4000 / ratetol=1.0 / qcomp=0.60 / qpmin=0 / qpmax=69 / qpstep=4 / cplxblur=20.0 / qblur=0.5 / vbv_maxrate=4000 / vbv_bufsize=4000 / nal_hrd=none / filler=0 / ip_ratio=1.40 / aq=1:1.00
Дата пометки : UTC 2018-01-02 17:47:56
Codec configuration box : avcC
Аудио
Идентификатор : 2
Формат : AAC LC
Формат/Информация : Advanced Audio Codec Low Complexity
Идентификатор кодека : mp4a-40-2
Продолжительность : 1 ч. 10 м.
Вид битрейта : Переменный
Битрейт : 150 Кбит/сек
Максимальный битрейт : 158 Кбит/сек
Каналы : 2 канала
Channel layout : L R
Частота : 44,1 КГц
Частота кадров : 43,066 кадра/сек (1024 SPF)
Метод сжатия : С потерями
Размер потока : 75,2 Мбайт (3%)
Default : Да
AlternateGroup/String : 1
Дата пометки : UTC 2018-01-02 17:47:56
[erzsebet.org].t35062.torrent 
Торрент: Зарегистрирован [ 2019-03-15 07:38 ]

Скачать .torrent

Скачать

12 KB

Статус: проверено
Скачан: 4 раз
Размер: 2,42 GB
Поблагодарили: 0  Спасибо
terms.php
[Профиль]  [ЛС] 
Показать сообщения:    
Ответить на тему

Текущее время: 21-Май 08:55

Часовой пояс: UTC + 3



Вы не можете начинать темы
Вы не можете отвечать на сообщения
Вы не можете редактировать свои сообщения
Вы не можете удалять свои сообщения
Вы не можете голосовать в опросах
Вы не можете прикреплять файлы к сообщениям
Вы можете скачивать файлы