<

Megadeth - Rust in Peace Live [2010, Thrash Metal, 720p, BDRip]

Ответить на тему
Статистика раздачи
Размер:  3,56 GB   |    Зарегистрирован:  2 месяца 6 дней   |    Скачан:  5 раз

Полного источника не было: 1 месяц 25 дней

 
 
 
Автор Сообщение

erzsebet ®

Стаж: 14 лет

Сообщений: 38895

Откуда: Hungary

Создавать темы 15-Мар-2019 08:03  |  Сменить автора

[Цитировать] 

Rust In Peace Live

Жанр: Thrash Metal
Продолжительность: 00:46:56 + 00:27:00
Год выпуска: 2010
Состав:
Dave Mustaine - Vocals, Guitars
Chris Broderick- Guitars
David Ellefson - Bass
Shawn Drover - Drums
Описание: Концертное издание, посвященное 20-летию выхода классического диска «Rust In Peace». Основу записи составляют материалы выступления группы, состоявшегося 31 марта 2010 года в Hollywood Palladium и ставшего финальным шоу юбилейного тура. В ходе своих концертов музыканты исполнили полную программу «Rust In Peace», а также свои наиболее известные хиты с других альбомов – такие как «Symphony For Destruction», «Peace Sells» и «Skin O' My Teeth». Это турне ознаменовалось возвращением в состав команды басиста Дэвида Эллефсона, покинувшего группу в 2002-м году.
Треклист :
01. Holy Wars...The Punishment Due
02. Hangar 18
03. Take No Prisoners
04. Five Magics
05. Poison Was The Cure
06. Lucretia
07. Tornado Of Souls
08. Dawn Patrol
09. Rust In Peace...Polaris
10. Holy Wars - Reprise
Бонус:
01. Skin O' My Teeth
02. In My Darkest Hour
03. She-Wolf
04. Trust
05. Symphony Of Destruction
06. Peace Sells


Качество: BDRip 720p
Навигация по главам: есть
Контейнер: MKV
Видео кодек: H.264
Аудио кодек: AC3
Видео: 1280x720, 29.97 fps, 16:9, 6000 kbps avg, 0.217 bit/pixel
Аудио 1: 48.0 khz / 6 ch / 448 Kbps
Аудио 2: 48.0 khz / 2 ch / 448 Kbps

Логи кодирования

Основной концерт

...last pass...
x264.exe: --pass 2 --bitrate 6000 --preset veryslow --profile high --level 4.1 --ref 8 --deblock -2:-2 --merange 32 --bframes 10 --psy-rd 1.05:0.15 --partitions p8x8,b8x8,i8x8,i4x4 --subme 9 --sar 1:1 --stats "F:\концерт.log" --output "F:\концерт.mkv" "F:\Temp\0699.avs"
avs [info]: 1280x720p 1:1 @ 10000000/333667 fps (cfr)
x264 [info]: using SAR=1/1
x264 [info]: using cpu capabilities: MMX2 SSE2Fast SSSE3 SSE4.2 AVX
x264 [info]: profile High, level 4.1
x264 [info]: frame I:682 Avg QP:17.21 size: 94554
x264 [info]: frame P:21749 Avg QP:20.81 size: 38916
x264 [info]: frame B:61965 Avg QP:22.81 size: 19375
x264 [info]: consecutive B-frames: 3.5% 4.6% 10.4% 43.9% 14.1% 12.4% 3.5% 6.2% 0.8% 0.3% 0.2%
x264 [info]: mb I I16..4: 9.5% 77.2% 13.3%
x264 [info]: mb P I16..4: 5.5% 23.0% 1.7% P16..4: 35.6% 14.7% 7.6% 0.0% 0.0% skip:11.9%
x264 [info]: mb B I16..4: 0.6% 2.5% 0.2% B16..8: 39.5% 10.7% 2.7% direct:10.8% skip:33.0% L0:43.1% L1:46.0% BI:10.9%
x264 [info]: 8x8 transform intra:76.0% inter:71.7%
x264 [info]: direct mvs spatial:95.4% temporal:4.6%
x264 [info]: coded y,uvDC,uvAC intra: 64.9% 73.8% 46.1% inter: 31.0% 36.8% 5.9%
x264 [info]: i16 v,h,dc,p: 46% 18% 15% 21%
x264 [info]: i8 v,h,dc,ddl,ddr,vr,hd,vl,hu: 10% 5% 14% 10% 14% 14% 11% 12% 10%
x264 [info]: i4 v,h,dc,ddl,ddr,vr,hd,vl,hu: 11% 5% 6% 11% 15% 17% 11% 13% 11%
x264 [info]: i8c dc,h,v,p: 45% 20% 18% 17%
x264 [info]: Weighted P-Frames: Y:8.6% UV:7.4%
x264 [info]: ref P L0: 49.1% 8.6% 18.5% 8.0% 5.6% 4.1% 3.4% 2.3% 0.5% 0.0%
x264 [info]: ref B L0: 75.3% 12.8% 5.5% 2.8% 2.0% 1.2% 0.5%
x264 [info]: ref B L1: 92.4% 7.6%
x264 [info]: kb/s:5998.44
x264 [total]: encoded 84396 frames, 8.12 fps, 5998.44 kb/s

Бонусы

...last pass...
x264.exe: --pass 2 --bitrate 6000 --preset veryslow --profile high --level 4.1 --ref 8 --deblock -2:-2 --merange 32 --bframes 10 --psy-rd 1.05:0.15 --partitions p8x8,b8x8,i8x8,i4x4 --subme 9 --sar 1:1 --stats "F:\бонусы.log" --output "F:\бонусы.mkv" "F:\Temp\0700.avs"
avs [info]: 1280x720p 1:1 @ 10000000/333667 fps (cfr)
x264 [info]: using SAR=1/1
x264 [info]: using cpu capabilities: MMX2 SSE2Fast SSSE3 SSE4.2 AVX
x264 [info]: profile High, level 4.1
x264 [info]: frame I:358 Avg QP:18.25 size: 97399
x264 [info]: frame P:11495 Avg QP:21.65 size: 41473
x264 [info]: frame B:36699 Avg QP:23.51 size: 19161
x264 [info]: consecutive B-frames: 2.3% 3.1% 12.1% 28.8% 15.3% 35.9% 1.5% 0.3% 0.2% 0.2% 0.3%
x264 [info]: mb I I16..4: 8.8% 78.2% 12.9%
x264 [info]: mb P I16..4: 5.3% 25.0% 1.8% P16..4: 36.9% 15.0% 7.3% 0.0% 0.0% skip: 8.7%
x264 [info]: mb B I16..4: 0.5% 2.3% 0.2% B16..8: 40.3% 10.5% 2.7% direct:11.4% skip:32.2% L0:43.3% L1:45.4% BI:11.3%
x264 [info]: 8x8 transform intra:77.8% inter:73.0%
x264 [info]: direct mvs spatial:96.6% temporal:3.4%
x264 [info]: coded y,uvDC,uvAC intra: 68.8% 79.5% 52.7% inter: 31.7% 39.0% 6.5%
x264 [info]: i16 v,h,dc,p: 45% 17% 16% 22%
x264 [info]: i8 v,h,dc,ddl,ddr,vr,hd,vl,hu: 9% 5% 12% 11% 14% 15% 11% 12% 11%
x264 [info]: i4 v,h,dc,ddl,ddr,vr,hd,vl,hu: 10% 5% 5% 10% 16% 18% 11% 13% 11%
x264 [info]: i8c dc,h,v,p: 43% 19% 19% 19%
x264 [info]: Weighted P-Frames: Y:9.3% UV:8.2%
x264 [info]: ref P L0: 48.9% 9.3% 18.5% 7.7% 5.5% 4.1% 3.2% 2.3% 0.5% 0.0%
x264 [info]: ref B L0: 80.4% 10.3% 4.2% 2.2% 1.6% 0.9% 0.4%
x264 [info]: ref B L1: 94.4% 5.6%
x264 [info]: kb/s:5998.91
x264 [total]: encoded 48552 frames, 7.87 fps, 5998.91 kb/s

MediaInfo

Основной концерт

General
Unique ID : 195342634312284217675191198587464167168 (0x92F59F754F3D5755B423EF0E1DA7AF00)
Complete name : F:\Музыка\Концерты\Megadeth - Rust In Peace Live 2010\Megadeth - Rust In Peace Live 2010.mkv
Format : Matroska
Format version : Version 4 / Version 2
File size : 2.26 GiB
Duration : 46mn 56s
Overall bit rate : 6 897 Kbps
Encoded date : UTC 2016-03-30 17:07:40
Writing application : mkvmerge v8.3.0 ('Over the Horizon') 64bit
Writing library : libebml v1.3.1 + libmatroska v1.4.2
DURATION : 00:46:56.064000000
NUMBER_OF_FRAMES : 88002
NUMBER_OF_BYTES : 157699584
_STATISTICS_WRITING_APP : mkvmerge v8.3.0 ('Over the Horizon') 64bit
_STATISTICS_WRITING_DATE_UTC : 2016-03-30 17:07:40
_STATISTICS_TAGS : BPS DURATION NUMBER_OF_FRAMES NUMBER_OF_BYTES
Video
ID : 1
Format : AVC
Format/Info : Advanced Video Codec
Format profile : High@L4.1
Format settings, CABAC : Yes
Format settings, ReFrames : 8 frames
Codec ID : V_MPEG4/ISO/AVC
Duration : 46mn 56s
Bit rate : 6 000 Kbps
Width : 1 280 pixels
Height : 720 pixels
Display aspect ratio : 16:9
Frame rate mode : Constant
Frame rate : 29.970 fps
Color space : YUV
Chroma subsampling : 4:2:0
Bit depth : 8 bits
Scan type : Progressive
Bits/(Pixel*Frame) : 0.217
Stream size : 1.92 GiB (85%)
Writing library : x264 core 148 r2638 7599210
Encoding settings : cabac=1 / ref=8 / deblock=1:-2:-2 / analyse=0x3:0x113 / me=umh / subme=9 / psy=1 / psy_rd=1.05:0.15 / mixed_ref=1 / me_range=32 / chroma_me=1 / trellis=2 / 8x8dct=1 / cqm=0 / deadzone=21,11 / fast_pskip=1 / chroma_qp_offset=-3 / threads=6 / lookahead_threads=1 / sliced_threads=0 / nr=0 / decimate=1 / interlaced=0 / bluray_compat=0 / constrained_intra=0 / bframes=10 / b_pyramid=2 / b_adapt=2 / b_bias=0 / direct=3 / weightb=1 / open_gop=0 / weightp=2 / keyint=250 / keyint_min=25 / scenecut=40 / intra_refresh=0 / rc_lookahead=60 / rc=2pass / mbtree=1 / bitrate=6000 / ratetol=1.0 / qcomp=0.60 / qpmin=0 / qpmax=69 / qpstep=4 / cplxblur=20.0 / qblur=0.5 / ip_ratio=1.40 / aq=1:1.00
Language : English
Default : Yes
Forced : No
DURATION : 00:46:56.016000000
NUMBER_OF_FRAMES : 84396
NUMBER_OF_BYTES : 2111462732
_STATISTICS_WRITING_APP : mkvmerge v8.3.0 ('Over the Horizon') 64bit
_STATISTICS_WRITING_DATE_UTC : 2016-03-30 17:07:40
_STATISTICS_TAGS : BPS DURATION NUMBER_OF_FRAMES NUMBER_OF_BYTES
Audio #1
ID : 2
Format : AC-3
Format/Info : Audio Coding 3
Mode extension : CM (complete main)
Format settings, Endianness : Big
Codec ID : A_AC3
Duration : 46mn 56s
Bit rate mode : Constant
Bit rate : 448 Kbps
Channel(s) : 6 channels
Channel positions : Front: L C R, Side: L R, LFE
Sampling rate : 48.0 KHz
Bit depth : 16 bits
Compression mode : Lossy
Stream size : 150 MiB (6%)
Language : English
Default : Yes
Forced : Yes
Audio #2
ID : 3
Format : AC-3
Format/Info : Audio Coding 3
Mode extension : CM (complete main)
Format settings, Endianness : Big
Codec ID : A_AC3
Duration : 46mn 56s
Bit rate mode : Constant
Bit rate : 448 Kbps
Channel(s) : 2 channels
Channel positions : Front: L R
Sampling rate : 48.0 KHz
Bit depth : 16 bits
Compression mode : Lossy
Stream size : 150 MiB (6%)
Language : English
Default : No
Forced : No
Menu
00:00:00.000 : en:Holy Wars...The Punishment Due
00:07:02.021 : en:Hangar 18
00:12:09.528 : en:Take No Prisoners
00:15:32.131 : en:Five Magics
00:21:27.686 : en:Poison Was The Cure
00:25:08.707 : en:Lucretia
00:29:07.345 : en:Tornado Of Souls
00:34:38.076 : en:Dawn Patrol
00:36:30.988 : en:Rust In Peace...Polaris
00:42:38.556 : en:Holy Wars - Reprise

Бонусы

General
Unique ID : 248750604589639616625854303323405989157 (0xBB239FB1C612134EAA47FDD5AD30B525)
Complete name : F:\Музыка\Концерты\Megadeth - Rust In Peace Live 2010\Megadeth - Rust In Peace Live 2010 (Bonus).mkv
Format : Matroska
Format version : Version 4 / Version 2
File size : 1.30 GiB
Duration : 27mn 0s
Overall bit rate : 6 897 Kbps
Encoded date : UTC 2016-03-30 17:12:39
Writing application : mkvmerge v8.3.0 ('Over the Horizon') 64bit
Writing library : libebml v1.3.1 + libmatroska v1.4.2
DURATION : 00:27:00.064000000
NUMBER_OF_FRAMES : 50627
NUMBER_OF_BYTES : 90723584
_STATISTICS_WRITING_APP : mkvmerge v8.3.0 ('Over the Horizon') 64bit
_STATISTICS_WRITING_DATE_UTC : 2016-03-30 17:12:39
_STATISTICS_TAGS : BPS DURATION NUMBER_OF_FRAMES NUMBER_OF_BYTES
Video
ID : 1
Format : AVC
Format/Info : Advanced Video Codec
Format profile : High@L4.1
Format settings, CABAC : Yes
Format settings, ReFrames : 8 frames
Codec ID : V_MPEG4/ISO/AVC
Duration : 27mn 0s
Bit rate : 6 000 Kbps
Width : 1 280 pixels
Height : 720 pixels
Display aspect ratio : 16:9
Frame rate mode : Constant
Frame rate : 29.970 fps
Color space : YUV
Chroma subsampling : 4:2:0
Bit depth : 8 bits
Scan type : Progressive
Bits/(Pixel*Frame) : 0.217
Stream size : 1.11 GiB (85%)
Writing library : x264 core 148 r2638 7599210
Encoding settings : cabac=1 / ref=8 / deblock=1:-2:-2 / analyse=0x3:0x113 / me=umh / subme=9 / psy=1 / psy_rd=1.05:0.15 / mixed_ref=1 / me_range=32 / chroma_me=1 / trellis=2 / 8x8dct=1 / cqm=0 / deadzone=21,11 / fast_pskip=1 / chroma_qp_offset=-3 / threads=6 / lookahead_threads=1 / sliced_threads=0 / nr=0 / decimate=1 / interlaced=0 / bluray_compat=0 / constrained_intra=0 / bframes=10 / b_pyramid=2 / b_adapt=2 / b_bias=0 / direct=3 / weightb=1 / open_gop=0 / weightp=2 / keyint=250 / keyint_min=25 / scenecut=40 / intra_refresh=0 / rc_lookahead=60 / rc=2pass / mbtree=1 / bitrate=6000 / ratetol=1.0 / qcomp=0.60 / qpmin=0 / qpmax=69 / qpstep=4 / cplxblur=20.0 / qblur=0.5 / ip_ratio=1.40 / aq=1:1.00
Language : English
Default : Yes
Forced : No
DURATION : 00:27:00.020000000
NUMBER_OF_FRAMES : 48552
NUMBER_OF_BYTES : 1214794680
_STATISTICS_WRITING_APP : mkvmerge v8.3.0 ('Over the Horizon') 64bit
_STATISTICS_WRITING_DATE_UTC : 2016-03-30 17:12:39
_STATISTICS_TAGS : BPS DURATION NUMBER_OF_FRAMES NUMBER_OF_BYTES
Audio #1
ID : 2
Format : AC-3
Format/Info : Audio Coding 3
Mode extension : CM (complete main)
Format settings, Endianness : Big
Codec ID : A_AC3
Duration : 27mn 0s
Bit rate mode : Constant
Bit rate : 448 Kbps
Channel(s) : 6 channels
Channel positions : Front: L C R, Side: L R, LFE
Sampling rate : 48.0 KHz
Bit depth : 16 bits
Compression mode : Lossy
Stream size : 86.5 MiB (6%)
Language : English
Default : Yes
Forced : Yes
Audio #2
ID : 3
Format : AC-3
Format/Info : Audio Coding 3
Mode extension : CM (complete main)
Format settings, Endianness : Big
Codec ID : A_AC3
Duration : 27mn 0s
Bit rate mode : Constant
Bit rate : 448 Kbps
Channel(s) : 2 channels
Channel positions : Front: L R
Sampling rate : 48.0 KHz
Bit depth : 16 bits
Compression mode : Lossy
Stream size : 86.5 MiB (6%)
Language : English
Default : No
Forced : No
Menu
00:00:00.000 : en:Skin O' My Teeth
00:03:18.598 : en:In My Darkest Hour
00:09:30.970 : en:She-Wolf
00:13:06.385 : en:Trust
00:18:16.295 : en:Symphony Of Destruction
00:22:16.535 : en:Peace Sells

Скриншоты

Cкринлисты

Megadeth - Rust In Peace Live 2010 (Bonus&#41;.mkv | 00&#58;27&#58;00 | 1,30 Gb  | 1280x720

Megadeth - Rust In Peace Live 2010.mkv | 00&#58;46&#58;56 | 2,26 Gb  | 1280x720

[erzsebet.org].t35064.torrent 
Торрент: Зарегистрирован [ 2019-03-15 08:03 ]

Скачать .torrent

Скачать

18 KB

Статус: проверено
Скачан: 5 раз
Размер: 3,56 GB
Поблагодарили: 0  Спасибо
terms.php
Связанные раздачи
Добавлен Темы Размер S / L Ссылка
18-Май-19 22:15 Megadeth - Rust in Peace Live [2010, Thrash Metal, 720p, BDRip]Отв. 0 6,91 GB | Скачать .torrent
[Профиль]  [ЛС] 
Показать сообщения:    
Ответить на тему

Текущее время: 21-Май 08:56

Часовой пояс: UTC + 3



Вы не можете начинать темы
Вы не можете отвечать на сообщения
Вы не можете редактировать свои сообщения
Вы не можете удалять свои сообщения
Вы не можете голосовать в опросах
Вы не можете прикреплять файлы к сообщениям
Вы можете скачивать файлы