Portrait de la jeune fille en feu / Портрет девушки в огне (Céline Sciamma) [2019, France, Drame, Historique, 1080p, WEB-DL] Noémie Merlant, Adèle Haenel, Luàna Bajrami

Ответить на тему
Статистика раздачи
Размер:  4.38 GB   |    Зарегистрирован:  2 дня 12 часов   |    Скачан:  0 раз
Сидов:  3   Личеров:  1  
 
 
Автор Сообщение

erzsebet ®

Стаж: 18 лет

Сообщений: 1311804

Откуда: Венгрия

Создавать темы 14-Янв-2021 03:10  |  Сменить автора

[Цитировать] 

Портрет девушки в огне
Portrait de la jeune fille en feu

Страна: France
Жанр: Drame, Historique
Год выпуска: 2019
Продолжительность: 2 h 1 min
Перевод: Русский
Режиссер: Селин Сьямма / Céline Sciamma
В ролях:
Ноэми Мерлан, Адель Энель, Луана Байрами, Валерия Голино, Кристель Барас, Арман Буланжер, Ги Деламарш, Клеман Буассу, Мишель Клеман, Сесиль Морел
Описание:
1770. Marianne est peintre et doit réaliser le portrait de mariage d’Héloïse, une jeune femme qui vient de quitter le couvent. Héloïse résiste à son destin d’épouse en refusant de poser. Marianne va devoir la peindre en secret. Introduite auprès d’elle en tant que dame de compagnie, elle la regarde.
Бретань, 1770. Марианна, художница, приезжает в имение на побережье, чтобы написать портрет дочери его владелицы — Элоизы. Картина нужна, чтобы отправить жениху Элоизы в Милан. В знак протеста против замужества девушка отказывается позировать, и гостью представляют как компаньонку для прогулок. Проводя все больше времени вместе, девушки начинают чувствовать взаимное притяжение.

Тип релиза: WEB-DL 1080p (Своя покупка)
Контейнер: MP4

MediaInfo

General
Complete name : /media/erzsebet/WD15EARSBAD/Portrait de la jeune fille en feu (Портрет девушки в огне) [erzsebet.org] 2019.mp4
Format : MPEG-4
Format profile : Base Media
Codec ID : isom (isom/iso2/avc1/mp41)
File size : 4.38 GiB
Duration : 2 h 1 min
Overall bit rate : 5 174 kb/s
Writing application : Lavf57.72.101
Video
ID : 1
Format : AVC
Format/Info : Advanced Video Codec
Format profile : [email protected]
Format settings : CABAC / 4 Ref Frames
Format settings, CABAC : Yes
Format settings, ReFrames : 4 frames
Codec ID : avc1
Codec ID/Info : Advanced Video Coding
Duration : 2 h 1 min
Bit rate : 5 000 kb/s
Width : 1 920 pixels
Height : 1 036 pixels
Display aspect ratio : 1.85:1
Frame rate mode : Constant
Frame rate : 24.000 FPS
Color space : YUV
Chroma subsampling : 4:2:0
Bit depth : 8 bits
Scan type : Progressive
Bits/(Pixel*Frame) : 0.105
Stream size : 4.16 GiB (95%)
Writing library : x264 core 148 r2721 72d53ab
Encoding settings : cabac=1 / ref=4 / deblock=1:0:0 / analyse=0x3:0x133 / me=umh / subme=10 / psy=1 / psy_rd=1.00:0.00 / mixed_ref=1 / me_range=24 / chroma_me=1 / trellis=2 / 8x8dct=1 / cqm=0 / deadzone=21,11 / fast_pskip=1 / chroma_qp_offset=-2 / threads=32 / lookahead_threads=5 / sliced_threads=0 / nr=0 / decimate=1 / interlaced=0 / bluray_compat=0 / constrained_intra=0 / bframes=8 / b_pyramid=2 / b_adapt=2 / b_bias=0 / direct=3 / weightb=1 / open_gop=0 / weightp=2 / keyint=96 / keyint_min=48 / scenecut=40 / intra_refresh=0 / rc_lookahead=60 / rc=2pass / mbtree=1 / bitrate=5000 / ratetol=1.0 / qcomp=0.60 / qpmin=0 / qpmax=69 / qpstep=4 / cplxblur=20.0 / qblur=0.5 / vbv_maxrate=5500 / vbv_bufsize=2500 / nal_hrd=none / filler=0 / ip_ratio=1.40 / aq=1:1.00
Codec configuration box : avcC
Audio
ID : 2
Format : AAC LC
Format/Info : Advanced Audio Codec Low Complexity
Codec ID : mp4a-40-2
Duration : 2 h 1 min
Bit rate mode : Constant
Bit rate : 248 kb/s
Channel(s) : 2 channels
Channel layout : L R
Sampling rate : 48.0 kHz
Frame rate : 46.875 FPS (1024 SPF)
Compression mode : Lossy
Stream size : 215 MiB (5%)
Default : Yes
Alternate group : 1

Screenshots

[erzsebet.org].t3783203.torrent
Торрент: Зарегистрирован [ 2021-01-14 03:27 ]

Скачать .torrent

Скачать

6 KB

Статус: проверено
Скачан: 0 раз
Размер: 4.38 GB
Поблагодарили: 0  Спасибо
terms.php
Связанные раздачи
Добавлен Темы Размер S / L Ссылка
02-Ноя-20 21:15 Портрет девушки в огне / Portrait de la jeune fille en feu (Селин Сьямма / Céline Sciamma) [2019, Франция, драма, BDRip 720p] Dub + Sub Rus, Eng + Original FraОтв. 0 6.69 GB | Скачать .torrent
02-Ноя-20 18:55 Портрет девушки в огне / Portrait de la jeune fille en feu (Селин Сьямма / Céline Sciamma) [2019, Франция, Драма, WEB-DL 1080p] Dub + Sub (Rus)Отв. 0 4.4 GB | Скачать .torrent
21-Мар-20 07:48 Портрет девушки в огне / Portrait de la jeune fille en feu (Селин Сьямма) [2019 г., Драма, BDRip 1080p] DUB | iTunesОтв. 0 11.98 GB | Скачать .torrent
14-Мар-20 07:20 Портрет девушки в огне / Portrait de la jeune fille en feu (Селин Сьямма / Céline Sciamma) [2019, Франция, драма, BDRemux 1080p] [FRA Transfer] Dub (iTunes) + Sub (Rus, Eng, Fra) + Original FraОтв. 0 33.66 GB | Скачать .torrent
[Профиль]  [ЛС] 
Показать сообщения:    
Ответить на тему

Текущее время: 16-Янв 15:30

Часовой пояс: UTC + 3



Вы не можете начинать темы
Вы не можете отвечать на сообщения
Вы не можете редактировать свои сообщения
Вы не можете удалять свои сообщения
Вы не можете голосовать в опросах
Вы не можете прикреплять файлы к сообщениям
Вы можете скачивать файлы